Logs:

https://mega.nz/#!DxMRkAgB!y5rpwkOd3OAp … JdVAB1jM1s


Title: Cat's: Part-1
System: FM Towns / Marty
Media Type: CD-ROM
Category: Games
Region: Japan
Languages: Japanese
Disc Serial: PAND 001
Ringcode Information:
    Mastering Code (laser branded/etched): PAND-001

Barcode:   
Error Count: 0  "[NO ERROR] User data vs. ecc/edc match all"
Edition/Release: Original


Primary Volume Descriptor (PVD):
0320 : 20 20 20 20 20 20 20 20  20 20 20 20 20 31 39 39                199
0330 : 33 30 34 30 38 31 30 33  30 30 30 30 30 00 31 39   3040810300000.19
0340 : 39 33 30 34 30 38 31 30  33 30 30 30 30 30 00 30   93040810300000.0
0350 : 30 30 30 30 30 30 30 30  30 30 30 30 30 30 30 00   000000000000000.
0360 : 30 30 30 30 30 30 30 30  30 30 30 30 30 30 30 30   0000000000000000
0370 : 00 01 00 00 00 00 00 00  00 00 00 00 00 00 00 00   ................

DAT:
<rom name="IDES_009 (Track 01).bin" size="10231200" crc="f71d64fc" md5="735188c08291628aebc387a68040d16c" sha1="32013aba4e66208419cf126bb705f0da65e7845b" />
    <rom name="IDES_009 (Track 02).bin" size="2116800" crc="aade3364" md5="1d9dff6493f288b51cb51165d6b63ff1" sha1="370892f9f51d99115f255aac310ff73cc15e48ae" />
    <rom name="IDES_009 (Track 03).bin" size="43923600" crc="d7672015" md5="3a0a5772d62e79481a16175b5e6d4448" sha1="012c5c1dda1785d242bc30e93dcb06759fef5123" />
    <rom name="IDES_009 (Track 04).bin" size="46393200" crc="ff264551" md5="adde6564bc1bac5a79120dac5a7b8020" sha1="839a88e2372462708caeabc9676e316a415ad825" />
    <rom name="IDES_009 (Track 05).bin" size="49392000" crc="7053b422" md5="2f0ee0d5223f73ac06b4eef34a8926ab" sha1="61086fc72a6586fa4d4e95675e3fde3a5123236f" />
    <rom name="IDES_009 (Track 06).bin" size="48157200" crc="f2c22dc1" md5="0a526292e214071694137184eeab9fa8" sha1="be96391399e96b8ee7b56c142a429605541f9d37" />
    <rom name="IDES_009 (Track 07).bin" size="48510000" crc="37ef0363" md5="0c56deec2a79b11d7f5fd657028af468" sha1="3e3d43a4ae238eca5de9dd25781f65add8c8227e" />
    <rom name="IDES_009 (Track 08).bin" size="47098800" crc="ce57c58e" md5="1490f28a700c96931ca996c002c96ff6" sha1="5fbef6a6258a8fe4981cc1893b10f441a810b30a" />
    <rom name="IDES_009 (Track 09).bin" size="52214400" crc="73ce2239" md5="87451157353a74b027c1fdf4acc9d8de" sha1="d682ca3ffea031068080b7341695aa358669fdff" />
    <rom name="IDES_009 (Track 10).bin" size="48333600" crc="72dcc7ba" md5="4439c5a5ee07789ac61023adb0556d6f" sha1="e9186cc354460dd798f503359ca8d09ada3767a0" />

Cuesheet:
FILE "IDES_009 (Track 01).bin" BINARY
  TRACK 01 MODE1/2352
    INDEX 01 00:00:00
FILE "IDES_009 (Track 02).bin" BINARY
  TRACK 02 AUDIO
    INDEX 00 00:00:00
    INDEX 01 00:02:00
FILE "IDES_009 (Track 03).bin" BINARY
  TRACK 03 AUDIO
    INDEX 00 00:00:00
    INDEX 01 00:02:00
FILE "IDES_009 (Track 04).bin" BINARY
  TRACK 04 AUDIO
    INDEX 00 00:00:00
    INDEX 01 00:02:00
FILE "IDES_009 (Track 05).bin" BINARY
  TRACK 05 AUDIO
    INDEX 00 00:00:00
    INDEX 01 00:02:00
FILE "IDES_009 (Track 06).bin" BINARY
  TRACK 06 AUDIO
    INDEX 00 00:00:00
    INDEX 01 00:02:00
FILE "IDES_009 (Track 07).bin" BINARY
  TRACK 07 AUDIO
    INDEX 00 00:00:00
    INDEX 01 00:02:00
FILE "IDES_009 (Track 08).bin" BINARY
  TRACK 08 AUDIO
    INDEX 00 00:00:00
    INDEX 01 00:02:00
FILE "IDES_009 (Track 09).bin" BINARY
  TRACK 09 AUDIO
    INDEX 00 00:00:00
    INDEX 01 00:02:00
FILE "IDES_009 (Track 10).bin" BINARY
  TRACK 10 AUDIO
    INDEX 00 00:00:00
    INDEX 01 00:02:00


Write Offset:  +1261