Screenshots and files: https://drive.google.com/drive/folders/ … sp=sharing

Title: Tex Murphy Overseer
Disc Number / Letter: 1
Disc Title: 1
System: IBM PC Compatible
Media Type: CD-ROM
Category: Games
Region: USA
Languages: Eng
Disc Serial:
Ringcode Information:
    Mastering Code (laser branded/etched): C2349    L809 8728 C2349 S80206-16 0        DUPLICATION GROUP UT(800)622-6036
    Mastering SID Code:
    Data-Side Mould SID Code: IFPI 4601
    Label-Side Mould SID Code:
    Additional Mould:
    Toolstamp or Mastering Code (engraved/stamped):
Barcode:
ISBN:
Error Count: 0
Comments:
Contents:
Version: 1.00
Edition/Release: Original
Primary Volume Descriptor (PVD):

0320 : 20 20 20 20 20 20 20 20  20 20 20 20 20 31 39 39                199
0330 : 38 30 32 30 35 30 32 31  37 33 30 30 30 00 31 39   8020502173000.19
0340 : 39 38 30 32 30 35 30 32  31 37 33 30 30 30 00 32   98020502173000.2
0350 : 30 30 38 30 32 30 33 30  32 31 37 33 30 30 30 00   008020302173000.
0360 : 31 39 39 38 30 32 30 35  30 32 31 37 33 30 30 30   1998020502173000
0370 : 00 01 00 00 00 00 00 00  00 00 00 00 00 00 00 00   ................

Copy Protection: H:\DATA\Sound\SOUND.016: SafeDisc 1
H:\DATA\c01\C01.016: SafeDisc 1
H:\DATA\r18\R18.016: SafeDisc 1
H:\DATA\r20\R20.016: SafeDisc 1
H:\DATA\r21\R21.016: SafeDisc 1
H:\DATA\r23\R23.016: SafeDisc 1
H:\DATA\r28\R28.016: SafeDisc 1
H:\DATA\r32\R32.016: SafeDisc 1
H:\DATA\r35\R35.016: SafeDisc 1

DAT:

<rom name="OVERSEER1.bin" size="757216992" crc="3b0e8600" md5="d1dc9c598f60fb8cf0862c891f4badb8" sha1="5aea0fb8707b806f53354d365a2edf7271929508" />

Cuesheet:

CATALOG 0000000000000
FILE "OVERSEER1.bin" BINARY
  TRACK 01 MODE1/2352
    INDEX 01 00:00:00

Write Offset: 0

-------------------------------------------------------------------------------------

Title: Tex Murphy Overseer
Disc Number / Letter: 2
Disc Title: 2
System: IBM PC Compatible
Media Type: CD-ROM
Category: Games
Region: USA
Languages: Eng
Disc Serial:
Ringcode Information:
    Mastering Code (laser branded/etched): TEX  MUR00001RMD2
    Mastering SID Code: IFPI L043
    Data-Side Mould SID Code: ifpi 1 6 3 F
    Label-Side Mould SID Code:
    Additional Mould:
    Toolstamp or Mastering Code (engraved/stamped): 1 - 1 - 6
Barcode:
ISBN:
Error Count: 0
Comments:
Contents:
Version: 1.00
Edition/Release: Original
Primary Volume Descriptor (PVD):

0320 : 20 20 20 20 20 20 20 20  20 20 20 20 20 31 39 39                199
0330 : 38 30 32 30 33 31 37 35  31 33 34 30 30 00 31 39   8020317513400.19
0340 : 39 38 30 32 30 33 31 37  35 31 33 34 30 30 00 32   98020317513400.2
0350 : 30 30 38 30 32 30 31 31  37 35 31 33 34 30 30 00   008020117513400.
0360 : 31 39 39 38 30 32 30 33  31 37 35 31 33 34 30 30   1998020317513400
0370 : 00 01 00 00 00 00 00 00  00 00 00 00 00 00 00 00   ................

Copy Protection: H:\DATA\C09\C09.016: SafeDisc 1
H:\DATA\Sound\SOUND.016: SafeDisc 1
H:\DATA\c03\C03.016: SafeDisc 1
H:\DATA\c05\C05.016: SafeDisc 1
H:\DATA\c15\c15.016: SafeDisc 1
H:\DATA\c60\C60.016: SafeDisc 1
H:\DATA\r01\r01.016: SafeDisc 1
H:\DATA\r02\R02.016: SafeDisc 1
H:\DATA\r03\R03.016: SafeDisc 1
H:\DATA\r04\R04.016: SafeDisc 1

DAT:

<rom name="OVERSEER2.bin" size="762363168" crc="f8451532" md5="b59cedcef5f0d288bb0271c9b97a886c" sha1="a5fa5249b1bb3d12d907d51384a1ef995e66cd2a" />

Cuesheet:

CATALOG 0000000000000
FILE "OVERSEER2.bin" BINARY
  TRACK 01 MODE1/2352
    INDEX 01 00:00:00

Write Offset: 0

---------------------------------------------------------------------

Title: Tex Murphy Overseer
Disc Number / Letter: 3
Disc Title: 3
System: IBM PC Compatible
Media Type: CD-ROM
Category: Games
Region: USA
Languages: Eng
Disc Serial:
Ringcode Information:
    Mastering Code (laser branded/etched): TEX  MUR00001RMD3
    Mastering SID Code: IFPI L043
    Data-Side Mould SID Code:
    Label-Side Mould SID Code:
    Additional Mould:
    Toolstamp or Mastering Code (engraved/stamped): 1 - 1 - 4
Barcode:
ISBN:
Error Count: 0
Comments:
Contents:
Version: 1.00
Edition/Release: Original
Primary Volume Descriptor (PVD):

0320 : 20 20 20 20 20 20 20 20  20 20 20 20 20 31 39 39                199
0330 : 38 30 32 30 34 31 36 32  37 31 33 30 30 00 31 39   8020416271300.19
0340 : 39 38 30 32 30 34 31 36  32 37 31 33 30 30 00 32   98020416271300.2
0350 : 30 30 38 30 32 30 32 31  36 32 37 31 33 30 30 00   008020216271300.
0360 : 31 39 39 38 30 32 30 34  31 36 32 37 31 33 30 30   1998020416271300
0370 : 00 01 00 00 00 00 00 00  00 00 00 00 00 00 00 00   ................

Copy Protection: H:\DATA\C06\C06.016: SafeDisc 1
H:\DATA\C07\C07.016: SafeDisc 1
H:\DATA\C08\C08.016: SafeDisc 1
H:\DATA\Sound\SOUND.016: SafeDisc 1
H:\DATA\c10\C10.016: SafeDisc 1
H:\DATA\c15\c15.016: SafeDisc 1
H:\DATA\c25\C25.016: SafeDisc 1
H:\DATA\r01\r01.016: SafeDisc 1
H:\DATA\r04\R04.016: SafeDisc 1
H:\DATA\r05\R05.016: SafeDisc 1
H:\DATA\r06\R06.016: SafeDisc 1
H:\DATA\r08\R08.016: SafeDisc 1
H:\DATA\r09\R09.016: SafeDisc 1
H:\DATA\r10\R10.016: SafeDisc 1

DAT:

<rom name="OVERSEER3.bin" size="777343056" crc="8af2a4ca" md5="2b31e82dc86e8a4b7b03e57395a3a97f" sha1="c327169e46b74f8bd4d6e18eca9367810133c173" />

Cuesheet:

CATALOG 0000000000000
FILE "OVERSEER3.bin" BINARY
  TRACK 01 MODE1/2352
    INDEX 01 00:00:00

Write Offset: 0

---------------------------------------------------------------------------------------

Title: Tex Murphy Overseer
Disc Number / Letter: 4
Disc Title: 4
System: IBM PC Compatible
Media Type: CD-ROM
Category: Games
Region: USA
Languages: Eng
Disc Serial:
Ringcode Information:
    Mastering Code (laser branded/etched): TEX  MUR00001RMD4  :
    Mastering SID Code:
    Data-Side Mould SID Code: IFPI L043
    Label-Side Mould SID Code:
    Additional Mould:
    Toolstamp or Mastering Code (engraved/stamped): 5 - 1 - 3
Barcode:
ISBN:
Error Count: 0
Comments:
Contents:
Version: 1.00
Edition/Release: Original
Primary Volume Descriptor (PVD):

0320 : 20 20 20 20 20 20 20 20  20 20 20 20 20 31 39 39                199
0330 : 38 30 32 30 33 31 36 32  35 34 36 30 30 00 31 39   8020316254600.19
0340 : 39 38 30 32 30 33 31 36  32 35 34 36 30 30 00 32   98020316254600.2
0350 : 30 30 38 30 32 30 31 31  36 32 35 34 36 30 30 00   008020116254600.
0360 : 31 39 39 38 30 32 30 33  31 36 32 35 34 36 30 30   1998020316254600
0370 : 00 01 00 00 00 00 00 00  00 00 00 00 00 00 00 00   ................

Copy Protection: H:\DATA\C06\C06.016: SafeDisc 1
H:\DATA\Sound\SOUND.016: SafeDisc 1
H:\DATA\c14\C14.016: SafeDisc 1
H:\DATA\c15\c15.016: SafeDisc 1
H:\DATA\r01\r01.016: SafeDisc 1
H:\DATA\r05\R05.016: SafeDisc 1
H:\DATA\r11\R11.016: SafeDisc 1
H:\DATA\r12\R12.016: SafeDisc 1
H:\DATA\r13\R13.016: SafeDisc 1
H:\DATA\r14\R14.016: SafeDisc 1
H:\DATA\r16\R16.016: SafeDisc 1
H:\DATA\r34\R34.016: SafeDisc 1

DAT:

<rom name="OVERSEER4.bin" size="739339440" crc="15f019bb" md5="36b98f1447399337f47bcf14536c296e" sha1="8d5eddc3e31f745aa0c82f954826f035d233d7fd" />

Cuesheet:

CATALOG 0000000000000
FILE "OVERSEER4.bin" BINARY
  TRACK 01 MODE1/2352
    INDEX 01 00:00:00

Write Offset: 0

---------------------------------------------------------------------------------

Title: Tex Murphy Overseer
Disc Number / Letter: 5
Disc Title: 5
System: IBM PC Compatible
Media Type: CD-ROM
Category: Games
Region: USA
Languages: Eng
Disc Serial:
Ringcode Information:
    Mastering Code (laser branded/etched): wea mfg. OLYPHANT    Y3932    ZC OVERSEER R01        M1S1
    Mastering SID Code: ifpi L903
    Data-Side Mould SID Code: IFPI 2U3X
    Label-Side Mould SID Code:
    Additional Mould:
    Toolstamp or Mastering Code (engraved/stamped):
Barcode:
ISBN:
Error Count: 0
Comments:
Contents:
Version: 1.00
Edition/Release: Original
Primary Volume Descriptor (PVD):

0320 : 20 20 20 20 20 20 20 20  20 20 20 20 20 31 39 39                199
0330 : 38 30 32 30 33 31 35 34  38 33 32 30 30 00 31 39   8020315483200.19
0340 : 39 38 30 32 30 33 31 35  34 38 33 32 30 30 00 32   98020315483200.2
0350 : 30 30 38 30 32 30 31 31  35 34 38 33 32 30 30 00   008020115483200.
0360 : 31 39 39 38 30 32 30 33  31 35 34 38 33 32 30 30   1998020315483200
0370 : 00 01 00 00 00 00 00 00  00 00 00 00 00 00 00 00   ................

Copy Protection: H:\DATA\C08\C08.016: SafeDisc 1
H:\DATA\Sound\SOUND.016: SafeDisc 1
H:\DATA\c11\C11.016: SafeDisc 1
H:\DATA\c15\c15.016: SafeDisc 1
H:\DATA\c47\C47.016: SafeDisc 1
H:\DATA\r01\r01.016: SafeDisc 1
H:\DATA\r12\R12.016: SafeDisc 1
H:\DATA\r13\R13.016: SafeDisc 1
H:\DATA\r15\R15.016: SafeDisc 1
H:\DATA\r17\R17.016: SafeDisc 1
H:\DATA\r24\R24.016: SafeDisc 1
H:\DATA\r26\R26.016: SafeDisc 1

DAT:

<rom name="OVERSEER5.bin" size="782834976" crc="c83d016c" md5="858bd5fe7390420424710d6ce36acb19" sha1="45fadda9cab3fed7ee873469ddb77f6a9caa237f" />

Cuesheet:

CATALOG 0000000000000
FILE "OVERSEER5.bin" BINARY
  TRACK 01 MODE1/2352
    INDEX 01 00:00:00

Write Offset: 0

-------------------------------------------------------------------------

Title: Tex Murphy Overseer
Disc Number / Letter:
Disc Title:
System: IBM PC Compatible
Media Type: DVD-ROM-5
Category: Games
Region: USA
Languages: Eng
Disc Serial:
Ringcode Information:
    Mastering Code (laser branded/etched): ZC  OVERSEER.1A  WAMO  VB01     M1S4
    Mastering SID Code: IFPI L907
    Data-Side Mould SID Code:
    Label-Side Mould SID Code:
    Additional Mould:
    Toolstamp or Mastering Code (engraved/stamped):
Barcode:
ISBN:
Comments:
Contents:
Version: 1.00
Edition/Release: Original
Primary Volume Descriptor (PVD):

0320 : 20 20 20 20 20 20 20 20  20 20 20 20 20 31 39 39                199
0330 : 38 30 32 30 36 31 31 32  31 32 34 30 30 E0 30 30   8020611212400.00
0340 : 30 30 30 30 30 30 30 30  30 30 30 30 30 30 00 30   00000000000000.0
0350 : 30 30 30 30 30 30 30 30  30 30 30 30 30 30 30 00   000000000000000.
0360 : 30 30 30 30 30 30 30 30  30 30 30 30 30 30 30 30   0000000000000000
0370 : 00 01 00 00 00 00 00 00  00 00 00 00 00 00 00 00   ................

Copy Protection: F:\DATA\C01\C01.016: SafeDisc 1
F:\DATA\C03\C03.016: SafeDisc 1
F:\DATA\C05\C05.016: SafeDisc 1
F:\DATA\C06\C06.016: SafeDisc 1
F:\DATA\C07\C07.016: SafeDisc 1
F:\DATA\C08\C08.016: SafeDisc 1
F:\DATA\C09\C09.016: SafeDisc 1
F:\DATA\C10\C10.016: SafeDisc 1
F:\DATA\C11\C11.016: SafeDisc 1
F:\DATA\C14\C14.016: SafeDisc 1
F:\DATA\C15\C15.016: SafeDisc 1
F:\DATA\C25\C25.016: SafeDisc 1
F:\DATA\C47\C47.016: SafeDisc 1
F:\DATA\C60\C60.016: SafeDisc 1
F:\DATA\EXAM\EXAM.016: SafeDisc 1
F:\DATA\EXAM\EXAMF.016: SafeDisc 1
F:\DATA\R01\R01.016: SafeDisc 1
F:\DATA\R02\R02.016: SafeDisc 1
F:\DATA\R03\R03.016: SafeDisc 1
F:\DATA\R04\R04.016: SafeDisc 1
F:\DATA\R05\R05.016: SafeDisc 1
F:\DATA\R06\R06.016: SafeDisc 1
F:\DATA\R08\R08.016: SafeDisc 1
F:\DATA\R09\R09.016: SafeDisc 1
F:\DATA\R10\R10.016: SafeDisc 1
F:\DATA\R11\R11.016: SafeDisc 1
F:\DATA\R12\R12.016: SafeDisc 1
F:\DATA\R13\R13.016: SafeDisc 1
F:\DATA\R14\R14.016: SafeDisc 1
F:\DATA\R15\R15.016: SafeDisc 1
F:\DATA\R16\R16.016: SafeDisc 1
F:\DATA\R17\R17.016: SafeDisc 1
F:\DATA\R18\R18.016: SafeDisc 1
F:\DATA\R20\R20.016: SafeDisc 1
F:\DATA\R21\R21.016: SafeDisc 1
F:\DATA\R23\R23.016: SafeDisc 1
F:\DATA\R24\R24.016: SafeDisc 1
F:\DATA\R26\R26.016: SafeDisc 1
F:\DATA\R28\R28.016: SafeDisc 1
F:\DATA\R32\R32.016: SafeDisc 1
F:\DATA\R34\R34.016: SafeDisc 1
F:\DATA\R35\R35.016: SafeDisc 1
F:\DATA\SOUND\SOUND.016: SafeDisc 1

DAT:

<rom name="OVERSEER1.iso" size="4659314688" crc="259cad0e" md5="571a4f4755cbae3943afcd13789a38d1" sha1="915a571e300c1ac0765dc4bbdd7156530f5c8295" />