Title: Riana Rouge (Disc 1)
Disc Number / Letter: 1
Disc Title: DISC1
System: IBM PC Compatible
Media Type: CD-ROM
Category: Games
Region: USA
Languages: English
Disc Serial: N/A
Ringcode Information:
    Mastering Code (laser branded/etched): CMC 373083-6
    Mastering SID Code: N/A
    Data-Side Mould SID Code: N/A
    Label-Side Mould SID Code: N/A
    Additional Mould: N/A
    Toolstamp or Mastering Code (engraved/stamped): N/A
Barcode: 7 88687 10281 0
ISBN: N/A
Error Count: 0
Comments: N/A
Contents: N/A
Version: 1.0
Edition/Release: Original
Primary Volume Descriptor (PVD):

0320 : 20 20 20 20 20 20 20 20  20 20 20 20 20 31 39 39                199
0330 : 37 31 31 32 36 30 33 35  33 31 33 30 30 00 31 39   7112603531300.19
0340 : 39 37 31 32 31 31 31 31  33 38 33 33 30 30 00 00   97121111383300..
0350 : 00 00 00 00 00 00 00 00  00 00 00 00 00 00 00 00   ................
0360 : 00 00 00 00 00 00 00 00  00 00 00 00 00 00 00 00   ................
0370 : 00 01 00 00 00 00 00 00  00 00 00 00 00 00 00 00   ................

Copy Protection: None found

DAT:

<rom name="DISC1.bin" size="677637072" crc="1d7a665b" md5="13b1889a389b54d54d7800d7c27431f7" sha1="95bcf985fe9c36735ff19bac3b2dc75b08855e33" />

Cuesheet:

CATALOG 0000000000000
FILE "DISC1.bin" BINARY
  TRACK 01 MODE1/2352
    INDEX 01 00:00:00

Write Offset: 0

Logs: https://drive.google.com/open?id=12w5J- … p60t4ATE4R

--------------------------------------

Title: Riana Rouge (Disc 2)
Disc Number / Letter: 2
Disc Title: Disc2
System: IBM PC Compatible
Media Type: CD-ROM
Category: Games
Region: USA
Languages: English
Disc Serial: N/A
Ringcode Information:
    Mastering Code (laser branded/etched): CMC 373088-6
    Mastering SID Code: N/A
    Data-Side Mould SID Code: N/A
    Label-Side Mould SID Code: N/A
    Additional Mould: N/A
    Toolstamp or Mastering Code (engraved/stamped): N/A
Barcode: 7 88687 10281 0
ISBN: N/A
Error Count: 0
Comments: N/A
Contents: N/A
Version: 1.0
Edition/Release: Original
Primary Volume Descriptor (PVD):

0320 : 20 20 20 20 20 20 20 20  20 20 20 20 20 31 39 39                199
0330 : 37 31 31 32 37 31 36 35  34 35 30 30 30 00 31 39   7112716545000.19
0340 : 39 37 31 31 32 37 31 36  35 34 35 30 30 30 00 32   97112716545000.2
0350 : 30 30 37 31 31 32 35 31  36 35 34 35 30 30 30 00   007112516545000.
0360 : 31 39 39 37 31 31 32 37  31 36 35 34 35 30 30 30   1997112716545000
0370 : 00 01 00 00 00 00 00 00  00 00 00 00 00 00 00 00   ................

Copy Protection: None found

DAT:

<rom name="Disc2.bin" size="546959952" crc="23d180c4" md5="d1c2c59aecaca3d84a2b653bef23ca94" sha1="e5cc8e12a282b8db8b73c6ae86a44abd2f7200a9" />

Cuesheet:

CATALOG 0000000000000
FILE "Disc2.bin" BINARY
  TRACK 01 MODE1/2352
    INDEX 01 00:00:00

Write Offset: 0

Logs: https://drive.google.com/open?id=1KrSp4 … 6UTmMIIt4b

--------------------------------------

Title: Riana Rouge (Disc 3)
Disc Number / Letter: 3
Disc Title: DISC3
System: IBM PC Compatible
Media Type: CD-ROM
Category: Games
Region: USA
Languages: English
Disc Serial: N/A
Ringcode Information:
    Mastering Code (laser branded/etched): CMC 373089-6
    Mastering SID Code: N/A
    Data-Side Mould SID Code: N/A
    Label-Side Mould SID Code: N/A
    Additional Mould: N/A
    Toolstamp or Mastering Code (engraved/stamped): N/A
Barcode: 7 88687 10281 0
ISBN: N/A
Error Count: 0
Comments: N/A
Contents: N/A
Version: 1.0
Edition/Release: Original
Primary Volume Descriptor (PVD):

0320 : 20 20 20 20 20 20 20 20  20 20 20 20 20 31 39 39                199
0330 : 37 31 31 32 36 30 35 33  31 32 36 30 30 00 31 39   7112605312600.19
0340 : 39 37 31 32 31 31 31 31  33 39 31 31 30 30 00 00   97121111391100..
0350 : 00 00 00 00 00 00 00 00  00 00 00 00 00 00 00 00   ................
0360 : 00 00 00 00 00 00 00 00  00 00 00 00 00 00 00 00   ................
0370 : 00 01 00 00 00 00 00 00  00 00 00 00 00 00 00 00   ................

Copy Protection: None found

DAT:

<rom name="DISC3.bin" size="738262224" crc="a6563095" md5="06f3cde2c1d8534d9709fa8536d0ed66" sha1="2f3e93d94ec82a0241d4e036a59c62f65f52957f" />

Cuesheet:

CATALOG 0000000000000
FILE "DISC3.bin" BINARY
  TRACK 01 MODE1/2352
    INDEX 01 00:00:00

Write Offset: 0

Logs: https://drive.google.com/open?id=1W1rzu … Kc9WMm79eZ

--------------------------------------