3 Pac-man games. I fell a bit short on info in Adventures In Time, for some reason my copy doesn't have as much info as the others.

http://redump.org/disc/52826/
Title: Ms. Pac-Man - Quest for the Golden Maze
Disc Number / Letter: (OPTIONAL)
Disc Title: (OPTIONAL)
System: IBM PC Compatible
Media Type: CD-ROM
Category: Games
Region: USA
Languages: English
Disc Serial: Product # 04-22259CD
Ringcode Information:
    Mastering Code (laser branded/etched): 1B9Z5<9265>24450
    Mastering SID Code: IFPI L485
    Mould SID Code: IFPI 81C1
    Additional Mould: (REQUIRED, IF EXISTS)
    Toolstamp or Mastering Code (engraved/stamped): (REQUIRED, IF EXISTS)
Barcode: (OPTIONAL)
ISBN: (OPTIONAL)
Error Count: 0
Comments: (OPTIONAL)
Contents: (OPTIONAL)
Version: 1.0
Edition/Release: Original
Primary Volume Descriptor (PVD):

0320 : 20 20 20 20 20 20 20 20  20 20 20 20 20 32 30 30                200
0330 : 31 30 39 32 34 31 30 33  33 34 30 30 30 00 32 30   1092410334000.20
0340 : 30 31 30 39 32 34 31 30  33 33 34 30 30 30 00 30   01092410334000.0
0350 : 30 30 30 30 30 30 30 30  30 30 30 30 30 30 30 00   000000000000000.
0360 : 30 30 30 30 30 30 30 30  30 30 30 30 30 30 30 30   0000000000000000
0370 : 00 01 00 00 00 00 00 00  00 00 00 00 00 00 00 00   ................

Copy Protection: None found

DAT:

<rom name="MS_PAC-MAN_QUEST.bin" size="192588816" crc="2807df37" md5="46fab2d3e9960274778c65912cc78493" sha1="256fd84d0e3489c21aff08ffa391c3de174e9278" />

Cuesheet:

FILE "MS_PAC-MAN_QUEST.bin" BINARY
  TRACK 01 MODE2/2352
    INDEX 01 00:00:00

Write Offset: -12

Logs: http://www.mediafire.com/file/8roox2ju9 … ST.7z/file

http://redump.org/disc/11635/
Title: Pac-Man: Adventures In Time
Disc Number / Letter: (OPTIONAL)
Disc Title: (OPTIONAL)
System: IBM PC Compatible
Media Type: CD-ROM
Category: Games
Region: USA
Languages: English
Disc Serial: Product # 99179
Ringcode Information:
    Mastering Code (laser branded/etched): 99179   + +   A3234-01
    Mastering SID Code: IFPI L028
    Mould SID Code: IFPI 1011
    Additional Mould: (REQUIRED, IF EXISTS)
    Toolstamp or Mastering Code (engraved/stamped): (REQUIRED, IF EXISTS)
Barcode: (OPTIONAL)
ISBN: (OPTIONAL)
Error Count: 0
Comments: (OPTIONAL)
Contents: (OPTIONAL)
Version: 1.0
Edition/Release: Original (VERIFY THIS)
Primary Volume Descriptor (PVD):

0320 : 20 20 20 20 20 20 20 20  20 20 20 20 20 32 30 30                200
0330 : 30 31 30 31 32 30 31 33  32 34 37 30 30 00 32 30   0101201324700.20
0340 : 30 30 31 30 31 32 30 31  33 32 34 37 30 30 00 30   00101201324700.0
0350 : 30 30 30 30 30 30 30 30  30 30 30 30 30 30 30 00   000000000000000.
0360 : 30 30 30 30 30 30 30 30  30 30 30 30 30 30 30 30   0000000000000000
0370 : 00 01 00 00 00 00 00 00  00 00 00 00 00 00 00 00   ................

Copy Protection: None found

DAT:

<rom name="Pac_Man.bin" size="530227824" crc="bf8645cb" md5="6e09025bbc18b0abb4cf6ca7eeb97bec" sha1="1fbe2b4de2b716716dae7e3ef110f66495ea4d89" />

Cuesheet:

FILE "Pac_Man.bin" BINARY
  TRACK 01 MODE1/2352
    INDEX 01 00:00:00

Write Offset: -12

Logs: http://www.mediafire.com/file/482c4ud57 … an.7z/file

http://redump.org/disc/12339/
Title: Pac-Man World 2
Disc Number / Letter: (OPTIONAL)
Disc Title: (OPTIONAL)
System: IBM PC Compatible
Media Type: CD-ROM
Category: Games
Region: USA
Languages: English, French, German, Italian, Spanish
Disc Serial: (REQUIRED, IF EXISTS)
Ringcode Information:
    Mastering Code (laser branded/etched): MADE IN CANADA *** 1068581-001 *    5521
    Mastering SID Code: IFPI L956
    Mould SID Code: IFPI 3H25
    Additional Mould: (REQUIRED, IF EXISTS)
    Toolstamp or Mastering Code (engraved/stamped): (REQUIRED, IF EXISTS)
Barcode: (OPTIONAL)
ISBN: (OPTIONAL)
Error Count: 0
Comments: (OPTIONAL)
Contents: (OPTIONAL)
Version: 1.0
Edition/Release: Original
Primary Volume Descriptor (PVD):

0320 : 20 20 20 20 20 20 20 20  20 20 20 20 20 32 30 30                200
0330 : 34 30 34 32 39 31 34 31  38 30 30 30 30 EC 32 30   4042914180000.20
0340 : 30 34 30 34 32 39 31 34  31 38 30 30 30 30 EC 30   04042914180000.0
0350 : 30 30 30 30 30 30 30 30  30 30 30 30 30 30 30 00   000000000000000.
0360 : 30 30 30 30 30 30 30 30  30 30 30 30 30 30 30 30   0000000000000000
0370 : 00 01 00 00 00 00 00 00  00 00 00 00 00 00 00 00   ................

Copy Protection: G:\files\PMW2.EXE: StarForce 3-5
G:\files\pmw2.dll: StarForce 3.03.033.008

DAT:

<rom name="PMW2.bin" size="819740208" crc="cad20678" md5="7506d5f598e89283942e776a97fd50b1" sha1="c7d7324c78721aa2cfddbb3ad8cc008875f61cba" />

Cuesheet:

FILE "PMW2.bin" BINARY
  TRACK 01 MODE2/2352
    INDEX 01 00:00:00

Write Offset: -12

Logs: http://www.mediafire.com/file/9a82ghbc9 … W2.7z/file