Box, UPC pic here: https://drive.google.com/open?id=1VSkM9 … WgeiqkRQae

Disc 1 Photos and Files: https://drive.google.com/open?id=1OBGJF … O34zwAudgl
Disc 2 Photos and Files: https://drive.google.com/open?id=1YBDth … XCGsy-FMzQ
Disc 3 Photos and Files: https://drive.google.com/open?id=1j8Phc … nEArWlrvYi

Title: Final Fantasy VII
Disc Number / Letter:
Disc Title: Disc 1
System: IBM PC Compatible
Media Type: CD-ROM
Category: Games
Region: USA
Languages: Eng
Disc Serial:
Ringcode Information:
    Mastering Code (laser branded/etched): 28198  4  7  <8122>  VDMS  374998-1  10501402
    Mastering SID Code: IFPI L871
    Data-Side Mould SID Code: IFPI 8143
    Label-Side Mould SID Code:
    Additional Mould:
    Toolstamp or Mastering Code (engraved/stamped):
Barcode: 788687105019
ISBN:
Error Count: 0
Comments:
Contents:
Version: 1.00
Edition/Release: Original
Primary Volume Descriptor (PVD):

0320 : 20 20 20 20 20 20 20 20  20 20 20 20 20 31 39 39                199
0330 : 38 30 35 32 34 31 32 35  39 34 31 30 30 30 31 39   8052412594100019
0340 : 39 38 30 35 32 34 31 32  35 39 34 31 30 30 30 30   9805241259410000
0350 : 30 30 30 30 30 30 30 30  30 30 30 30 30 30 30 30   0000000000000000
0360 : 31 39 39 38 30 35 32 34  31 32 35 39 34 31 30 30   1998052412594100
0370 : 30 01 00 00 00 00 00 00  00 00 00 00 00 00 00 00   0...............

Copy Protection: None found

DAT:

<rom name="FF7DISC1.bin" size="631737792" crc="3753ce96" md5="950d06206dc7efffed1e5c4be92a157b" sha1="23dc8d6f01bd65d8f9b55f28a8c920f45f75e1e1" />

Cuesheet:

CATALOG 0000000000000
FILE "FF7DISC1.bin" BINARY
  TRACK 01 MODE1/2352
    INDEX 01 00:00:00

Write Offset: 0

---------------------------------------------------------------------------------------------------------------------------------------------------

Title: Final Fantasy VII
Disc Number / Letter:
Disc Title: Disc 2
System: IBM PC Compatible
Media Type: CD-ROM
Category: Games
Region: USA
Languages: Eng
Disc Serial:
Ringcode Information:
    Mastering Code (laser branded/etched): 28206  5  7  <8122>  VDMS  374999-1  10501403
    Mastering SID Code: IFPI L871
    Data-Side Mould SID Code: IFPI 8133
    Label-Side Mould SID Code:
    Additional Mould:
    Toolstamp or Mastering Code (engraved/stamped):
Barcode: 788687105019
ISBN:
Error Count: 0
Comments:
Contents:
Version: 1.00
Edition/Release: Original
Primary Volume Descriptor (PVD):

0320 : 20 20 20 20 20 20 20 20  20 20 20 20 20 31 39 39                199
0330 : 38 30 35 32 34 31 35 35  34 31 36 30 30 30 31 39   8052415541600019
0340 : 39 38 30 35 32 34 31 35  35 34 31 36 30 30 30 30   9805241554160000
0350 : 30 30 30 30 30 30 30 30  30 30 30 30 30 30 30 30   0000000000000000
0360 : 31 39 39 38 30 35 32 34  31 35 35 34 31 36 30 30   1998052415541600
0370 : 30 01 00 00 00 00 00 00  00 00 00 00 00 00 00 00   0...............

Copy Protection: None found

DAT:

<rom name="FF7DISC2.bin" size="695681616" crc="50521ef3" md5="cf19bc8dd8888a2da36211c06c3b0408" sha1="26dd9030727d9188bcd47ba687ad355f2be11ddd" />

Cuesheet:

CATALOG 0000000000000
FILE "FF7DISC2.bin" BINARY
  TRACK 01 MODE1/2352
    INDEX 01 00:00:00

Write Offset: 0

-----------------------------------------------------------------------------------------------------------------------------------------------------

Title: Final Fantasy VII
Disc Number / Letter:
Disc Title: Disc 3
System: IBM PC Compatible
Media Type: CD-ROM
Category: Games
Region: USA
Languages: Eng
Disc Serial:
Ringcode Information:
    Mastering Code (laser branded/etched): 28207  2  7  <8122>  VDMS  375000-1  10501404
    Mastering SID Code: IFPI L871
    Data-Side Mould SID Code: 1815
    Label-Side Mould SID Code:
    Additional Mould:
    Toolstamp or Mastering Code (engraved/stamped):
Barcode: 788687105019
ISBN:
Error Count: 0
Comments:
Contents:
Version: 1.00
Edition/Release: Original
Primary Volume Descriptor (PVD):

0320 : 20 20 20 20 20 20 20 20  20 20 20 20 20 31 39 39                199
0330 : 38 30 35 32 34 30 32 35  34 31 39 30 30 30 31 39   8052402541900019
0340 : 39 38 30 35 32 34 30 32  35 34 31 39 30 30 30 30   9805240254190000
0350 : 30 30 30 30 30 30 30 30  30 30 30 30 30 30 30 30   0000000000000000
0360 : 31 39 39 38 30 35 32 34  30 32 35 34 31 39 30 30   1998052402541900
0370 : 30 01 00 00 00 00 00 00  00 00 00 00 00 00 00 00   0...............

Copy Protection: None found

DAT:

<rom name="FF7DISC3.bin" size="549097920" crc="7d62817b" md5="421d3a89ff2fee43c599f618d0254ff9" sha1="e7f66019d63b3ad512c41d0ca5a3a68ff53c73ac" />

Cuesheet:

FILE "FF7DISC3.bin" BINARY
  TRACK 01 MODE1/2352
    INDEX 01 00:00:00

Write Offset: 0