Required data (including CDs pictures) in the links below the names.

Black Dahlia (Disc 1)
https://mega.nz/#F!BBJxDCQL!EO_ivdMSvmeSMZEJH_T4Hw

Title: Black Dahlia
Disc Number / Letter: 1
Disc Title:
System: IBM PC Compatible
Media Type: CD-ROM
Category: Games
Region: Brazil
Languages: Brazilian Portuguese
Disc Serial:
Ringcode Information:
    Mastering Code (laser branded/etched): SONOPRESS:BD01    14703/98
    Mastering SID Code: IFPI LB43
    Label-Side Mould SID Code:
    Data-Side Mould SID Code:
    Additional Mould:
    Toolstamp or Mastering Code (engraved/stamped):
Barcode:
ISBN:
Error Count: 0
Comments: Dubbed to Brazilian Portuguese by GreenLeaf
Contents:
Version:
Edition/Release: Original
Primary Volume Descriptor (PVD):

0320 : 20 20 20 20 20 20 20 20  20 20 20 20 20 31 39 39                199
0330 : 38 31 31 32 36 31 38 31  32 30 38 30 30 00 31 39   8112618120800.19
0340 : 39 38 31 31 32 36 31 38  31 32 30 38 30 30 00 32   98112618120800.2
0350 : 30 30 38 31 31 32 33 31  38 31 32 30 38 30 30 00   008112318120800.
0360 : 31 39 39 38 31 31 32 36  31 38 31 32 30 38 30 30   1998112618120800
0370 : 00 01 00 00 00 00 00 00  00 00 00 00 00 00 00 00   ................

Copy Protection: None found

DAT:

<rom name="Black Dahlia (Disc 1).bin" size="781094496" crc="48152a74" md5="9cd177775684288cbfa6ba9c2c539eee" sha1="924ef861844191d33a5f727ff4782c1270db8714" />

Cuesheet:

FILE "Black Dahlia (Disc 1).bin" BINARY
  TRACK 01 MODE1/2352
    INDEX 01 00:00:00

Write Offset: -12

Black Dahlia (Disc 2)
https://mega.nz/#F!hRA3HQYI!YtYJ7633nXRTcV0eCUleSA

Title: Black Dahlia
Disc Number / Letter: 2
Disc Title:
System: IBM PC Compatible
Media Type: CD-ROM
Category: Games
Region: Brazil
Languages: Brazilian Portuguese
Disc Serial:
Ringcode Information:
    Mastering Code (laser branded/etched): SONOPRESS:BD02    14546/98
    Mastering SID Code: IFPI LB43
    Label-Side Mould SID Code:
    Data-Side Mould SID Code:
    Additional Mould:
    Toolstamp or Mastering Code (engraved/stamped):
Barcode:
ISBN:
Error Count: 0
Comments: Dubbed to Brazilian Portuguese by GreenLeaf
Contents:
Version:
Edition/Release: Original
Primary Volume Descriptor (PVD):

0320 : 20 20 20 20 20 20 20 20  20 20 20 20 20 31 39 39                199
0330 : 38 31 31 32 33 30 39 31  32 34 36 30 30 F4 31 39   8112309124600.19
0340 : 39 38 31 31 32 33 30 39  31 32 34 36 30 30 F4 32   98112309124600.2
0350 : 30 30 38 31 31 32 33 30  39 31 32 34 36 30 30 F4   008112309124600.
0360 : 31 39 39 38 31 31 32 33  30 39 31 32 34 36 30 30   1998112309124600
0370 : F4 01 00 43 44 20 52 69  67 68 74 21 20 31 2E 31   ...CD Right! 1.1

Copy Protection: None found

DAT:

<rom name="Black Dahlia (Disc 2).bin" size="628040448" crc="c95add5d" md5="94f5f2c6fa609a3b35cc066ee19bb0fe" sha1="069f9526fcb2535b800094015aa7a1ef89bf1af9" />

Cuesheet:

FILE "Black Dahlia (Disc 2).bin" BINARY
  TRACK 01 MODE1/2352
    INDEX 01 00:00:00

Write Offset: -12

Black Dahlia (Disc 3)
https://mega.nz/#F!pABlDQDQ!jS_6O0UVHTnAXkTHqe2SKA

Title: Black Dahlia
Disc Number / Letter: 3
Disc Title:
System: IBM PC Compatible
Media Type: CD-ROM
Category: Games
Region: Brazil
Languages: Brazilian Portuguese
Disc Serial:
Ringcode Information:
    Mastering Code (laser branded/etched): SONOPRESS:BD03    14579/98
    Mastering SID Code: IFPI LB43
    Label-Side Mould SID Code:
    Data-Side Mould SID Code:
    Additional Mould:
    Toolstamp or Mastering Code (engraved/stamped):
Barcode:
ISBN:
Error Count: 0
Comments: Dubbed to Brazilian Portuguese by GreenLeaf
Contents:
Version:
Edition/Release: Original
Primary Volume Descriptor (PVD):

0320 : 20 20 20 20 20 20 20 20  20 20 20 20 20 31 39 39                199
0330 : 38 31 31 32 33 31 36 33  32 31 30 30 30 F4 31 39   8112316321000.19
0340 : 39 38 31 31 32 33 31 36  33 32 31 30 30 30 F4 32   98112316321000.2
0350 : 30 30 38 31 31 32 33 31  36 33 32 31 30 30 30 F4   008112316321000.
0360 : 31 39 39 38 31 31 32 33  31 36 33 32 31 30 30 30   1998112316321000
0370 : F4 01 00 43 44 20 52 69  67 68 74 21 20 31 2E 31   ...CD Right! 1.1

Copy Protection: None found

DAT:

<rom name="Black Dahlia (Disc 3).bin" size="758774016" crc="1999ecf3" md5="9ccde7037465bff5bd21c3575772bea1" sha1="6dc91d0c5422cef75813e0f5216ea6a06789a3f3" />

Cuesheet:

FILE "Black Dahlia (Disc 3).bin" BINARY
  TRACK 01 MODE1/2352
    INDEX 01 00:00:00

Write Offset: -12

Black Dahlia (Disc 4)
https://mega.nz/#F!EBR1HCBB!MzzXAVS4awCD1xwFdxLIUw

Title: Black Dahlia
Disc Number / Letter: 4
Disc Title:
System: IBM PC Compatible
Media Type: CD-ROM
Category: Games
Region: Brazil
Languages: Brazilian Portuguese
Disc Serial:
Ringcode Information:
    Mastering Code (laser branded/etched): SONOPRESS:BD04    14413/98
    Mastering SID Code: IFPI LB43
    Label-Side Mould SID Code:
    Data-Side Mould SID Code:
    Additional Mould:
    Toolstamp or Mastering Code (engraved/stamped):
Barcode:
ISBN:
Error Count: 0
Comments: Dubbed to Brazilian Portuguese by GreenLeaf
Contents:
Version:
Edition/Release: Original
Primary Volume Descriptor (PVD):

0320 : 20 20 20 20 20 20 20 20  20 20 20 20 20 31 39 39                199
0330 : 38 31 31 31 39 31 34 30  37 34 30 30 30 F4 31 39   8111914074000.19
0340 : 39 38 31 31 31 39 31 34  30 37 34 30 30 30 F4 32   98111914074000.2
0350 : 30 30 38 31 31 31 39 31  34 30 37 34 30 30 30 F4   008111914074000.
0360 : 31 39 39 38 31 31 31 39  31 34 30 37 34 30 30 30   1998111914074000
0370 : F4 01 00 43 44 20 52 69  67 68 74 21 20 31 2E 31   ...CD Right! 1.1

Copy Protection: None found

DAT:

<rom name="Black Dahlia (Disc 4).bin" size="779375184" crc="e2891854" md5="2dbbc5448c827b89d24f73c8470b78e9" sha1="032dbcf6aa9211f5c30fd2f87d32eddbf29da5ea" />

Cuesheet:

FILE "Black Dahlia (Disc 4).bin" BINARY
  TRACK 01 MODE1/2352
    INDEX 01 00:00:00

Write Offset: -12

Black Dahlia (Disc 5)
https://mega.nz/#F!IJY13ARY!UrxskKZPGX_5kXKLQlElsw

Title: Black Dahlia
Disc Number / Letter: 5
Disc Title:
System: IBM PC Compatible
Media Type: CD-ROM
Category: Games
Region: Brazil
Languages: Brazilian Portuguese
Disc Serial:
Ringcode Information:
    Mastering Code (laser branded/etched):  SONOPRESS:BD05    14286/98
    Mastering SID Code: IFPI LB43
    Label-Side Mould SID Code:
    Data-Side Mould SID Code:
    Additional Mould:
    Toolstamp or Mastering Code (engraved/stamped):
Barcode:
ISBN:
Error Count: 0
Comments: Dubbed to Brazilian Portuguese by GreenLeaf
Contents:
Version:
Edition/Release: Original
Primary Volume Descriptor (PVD):

0320 : 20 20 20 20 20 20 20 20  20 20 20 20 20 31 39 39                199
0330 : 38 31 31 31 34 31 33 33  34 34 33 30 30 00 31 39   8111413344300.19
0340 : 39 38 31 31 31 34 31 33  33 34 34 33 30 30 00 32   98111413344300.2
0350 : 30 30 38 31 31 31 31 31  33 33 34 34 33 30 30 00   008111113344300.
0360 : 31 39 39 38 31 31 31 34  31 33 33 34 34 33 30 30   1998111413344300
0370 : 00 01 00 00 00 00 00 00  00 00 00 00 00 00 00 00   ................

Copy Protection: None found

DAT:

<rom name="Black Dahlia (Disc 5).bin" size="759529008" crc="21a74080" md5="3d080d07d06fb1541e2669e5b3d87d9b" sha1="f7ef9ed81b66d5b7359a06a14033e925de0dc089" />

Cuesheet:

FILE "Black Dahlia (Disc 5).bin" BINARY
  TRACK 01 MODE1/2352
    INDEX 01 00:00:00

Write Offset: 18

Black Dahlia (Disc 6)
https://mega.nz/#F!cFIFRCBa!20pwUh7qKm5H129GlcjZ4w

Title: Black Dahlia
Disc Number / Letter: 6
Disc Title:
System: IBM PC Compatible
Media Type: CD-ROM
Category: Games
Region: Brazil
Languages: Brazilian Portuguese
Disc Serial:
Ringcode Information:
    Mastering Code (laser branded/etched): SONOPRESS:BD06    14274/98
    Mastering SID Code: IFPI LB43
    Label-Side Mould SID Code:
    Data-Side Mould SID Code:
    Additional Mould:
    Toolstamp or Mastering Code (engraved/stamped):
Barcode:
ISBN:
Error Count: 0
Comments: Dubbed to Brazilian Portuguese by GreenLeaf
Contents:
Version:
Edition/Release: Original
Primary Volume Descriptor (PVD):

0320 : 20 20 20 20 20 20 20 20  20 20 20 20 20 31 39 39                199
0330 : 38 31 31 31 34 31 34 33  39 31 32 30 30 00 31 39   8111414391200.19
0340 : 39 38 31 31 31 34 31 34  33 39 31 32 30 30 00 32   98111414391200.2
0350 : 30 30 38 31 31 31 31 31  34 33 39 31 32 30 30 00   008111114391200.
0360 : 31 39 39 38 31 31 31 34  31 34 33 39 31 32 30 30   1998111414391200
0370 : 00 01 00 00 00 00 00 00  00 00 00 00 00 00 00 00   ................

Copy Protection: None found

DAT:

<rom name="Black Dahlia (Disc 6).bin" size="728736624" crc="2b9ae11b" md5="ab1989841d1bbe022684eb54e35643f6" sha1="16cc6ef9bd2a5fda27b68b8de48e59b0d9da3b07" />

Cuesheet:

FILE "Black Dahlia (Disc 6).bin" BINARY
  TRACK 01 MODE1/2352
    INDEX 01 00:00:00

Write Offset: -12

Black Dahlia (Disc 7)
https://mega.nz/#F!IAJl2aib!EIG3x3joHmBKd26w63rYNA

Title: Black Dahlia
Disc Number / Letter: 7
Disc Title:
System: IBM PC Compatible
Media Type: CD-ROM
Category: Games
Region: Brazil
Languages: Brazilian Portuguese
Disc Serial:
Ringcode Information:
    Mastering Code (laser branded/etched): SONOPRESS:BD07    14733/98
    Mastering SID Code: IFPI LB43
    Label-Side Mould SID Code:
    Data-Side Mould SID Code:
    Additional Mould:
    Toolstamp or Mastering Code (engraved/stamped):
Barcode:
ISBN:
Error Count: 0
Comments: Dubbed to Brazilian Portuguese by GreenLeaf
Contents:
Version:
Edition/Release: Original
Primary Volume Descriptor (PVD):

0320 : 20 20 20 20 20 20 20 20  20 20 20 20 20 31 39 39                199
0330 : 38 31 31 32 33 31 31 33  37 35 38 30 30 F4 31 39   8112311375800.19
0340 : 39 38 31 31 32 33 31 31  33 37 35 38 30 30 F4 32   98112311375800.2
0350 : 30 30 38 31 31 32 33 31  31 33 37 35 38 30 30 F4   008112311375800.
0360 : 31 39 39 38 31 31 32 33  31 31 33 37 35 38 30 30   1998112311375800
0370 : F4 01 00 43 44 20 52 69  67 68 74 21 20 31 2E 31   ...CD Right! 1.1

Copy Protection: None found

DAT:

<rom name="Black Dahlia (Disc 7).bin" size="778909488" crc="0402d400" md5="cefa4027584f51dccfbe0e2fa9ac2e4c" sha1="a6bbb75a5cbee60f9786f057fd699b81379b0938" />

Cuesheet:

FILE "Black Dahlia (Disc 7).bin" BINARY
  TRACK 01 MODE1/2352
    INDEX 01 00:00:00

Write Offset: -12

Black Dahlia (Disc 8)
https://mega.nz/#F!RYIhyaiT!nsMlbnBMdZBe6DuMClowKg

Title: Black Dahlia
Disc Number / Letter: 8
Disc Title:
System: IBM PC Compatible
Media Type: CD-ROM
Category: Games
Region: Brazil
Languages: Brazilian Portuguese
Disc Serial:
Ringcode Information:
    Mastering Code (laser branded/etched): SONOPRESS:BD08    14288/98
    Mastering SID Code: IFPI LB43
    Label-Side Mould SID Code:
    Data-Side Mould SID Code:
    Additional Mould:
    Toolstamp or Mastering Code (engraved/stamped):
Barcode:
ISBN:
Error Count: 0
Comments: Dubbed to Brazilian Portuguese by GreenLeaf
Contents:
Version:
Edition/Release: Original
Primary Volume Descriptor (PVD):

0320 : 20 20 20 20 20 20 20 20  20 20 20 20 20 31 39 39                199
0330 : 38 31 31 31 34 31 32 31  35 34 31 30 30 00 31 39   8111412154100.19
0340 : 39 38 31 31 31 34 31 32  31 35 34 31 30 30 00 32   98111412154100.2
0350 : 30 30 38 31 31 31 31 31  32 31 35 34 31 30 30 00   008111112154100.
0360 : 31 39 39 38 31 31 31 34  31 32 31 35 34 31 30 30   1998111412154100
0370 : 00 01 00 00 00 00 00 00  00 00 00 00 00 00 00 00   ................

Copy Protection: None found

DAT:

<rom name="Black Dahlia (Disc 8).bin" size="772015776" crc="9257a495" md5="4b0b460b3c59423b1b433b1e640633f6" sha1="61a96d54d41ca815322c72b9d3ba0ce569845263" />

Cuesheet:

FILE "Black Dahlia (Disc 8).bin" BINARY
  TRACK 01 MODE1/2352
    INDEX 01 00:00:00

Write Offset: 18