Verify the following 3 Discs:
http://redump.org/disc/14441/
http://redump.org/disc/14442/
http://redump.org/disc/14440/


Dracula: Origin (Disc 1)             
Pics of CD: https://drive.google.com/open?id=1nDw_i … U5ahiE6YUI
Output Files: https://drive.google.com/open?id=18faUP … C_I4LkfO7r


Dracula: Origin (Disc 2)
Pics of CD: https://drive.google.com/open?id=1AboAy … E89SKwQqST
Output Files: https://drive.google.com/open?id=1oD9Eu … wUHguxDVs3

Dracula: Origin (Disc 3)
Pics of CD: https://drive.google.com/open?id=1NDU-J … x5ncVQlMfi
Output Files: https://drive.google.com/open?id=10cqDM … IHtMvzHW68


Please add version number, ISBN, and Disc Serial

-----------------------------------------------------------------------------------------------------------------------------------------------
Title: Dracula: Origin
Disc Number / Letter: 1
Disc Title:
System: IBM PC Compatible
Media Type: CD-ROM
Category: Games
Region: USA
Languages: English
Disc Serial: PC0570CD   
Ringcode Information:
    Mastering Code (laser branded/etched): 4/28/2008 9:49:55 AM    PC0570CD    01
    Mastering SID Code: IFPI LL27
    Data-Side Mould SID Code:
    Label-Side Mould SID Code:
    Additional Mould:
    Toolstamp or Mastering Code (engraved/stamped):
Barcode: 6 25904 57075 8
ISBN: 1-55345-855-9
Error Count: 0
Comments:
Contents:
Version: 1.00.0777
Edition/Release: Original
Primary Volume Descriptor (PVD):

0320 : 20 20 20 20 20 20 20 20  20 20 20 20 20 32 30 30                200
0330 : 38 30 34 32 36 31 33 35  36 32 33 30 38 00 32 30   8042613562308.20
0340 : 30 38 30 34 32 36 31 33  35 36 32 33 30 38 00 35   08042613562308.5
0350 : 35 34 37 37 32 33 38 33  33 31 39 33 37 38 32 04   547723833193782.
0360 : 32 30 30 38 30 34 32 36  31 35 35 36 32 33 38 36   2008042615562386
0370 : 04 00 00 00 00 00 00 00  00 00 00 00 00 00 00 00   ................

Copy Protection: F:\data1.cab: SolidShield 1.9.6.4, TAGES 5.5.2.8
F:\data1.hdr: SolidShield 1.9.6.4, TAGES 5.5.2.8
F:\data2.cab: SolidShield 1.9.6.4, TAGES 5.5.2.8
F:\game.exe: SolidShield 1 (SolidShield EXE Wrapper)
F:\support\TagesSetup.exe: TAGES 5.5.3.1
F:\support\TagesSetup_x64.exe: TAGES 5.5.3.1

DAT:

<rom name="Dracula D1.bin" size="814857456" crc="9555335e" md5="f21490ca4972db081fcac66daf091e5f" sha1="a911c6fde0d9a9d8479784a83437afd1bbe03fc4" />

Cuesheet:

FILE "Dracula D1.bin" BINARY
  TRACK 01 MODE1/2352
    INDEX 01 00:00:00

Write Offset: -12


-----------------------------------------------------------------------------------------------------------------------------------------------
Title: Dracula: Origin
Disc Number / Letter: 2
Disc Title:
System: IBM PC Compatible
Media Type: CD-ROM
Category: Games
Region: USA
Languages: English
Disc Serial: PC0570CD
Ringcode Information:
    Mastering Code (laser branded/etched): CD    10-93548
    Mastering SID Code:
    Data-Side Mould SID Code: IFPI V504
    Label-Side Mould SID Code:
    Additional Mould:
    Toolstamp or Mastering Code (engraved/stamped):
Barcode: 6 25904 57075 8
ISBN: 1-55345-855-9
Error Count: 0
Comments:
Contents:
Version: 1.00.0777
Edition/Release: Original
Primary Volume Descriptor (PVD):

0320 : 20 20 20 20 20 20 20 20  20 20 20 20 20 32 30 30                200
0330 : 38 30 34 32 39 31 34 30  33 30 30 30 30 F0 32 30   8042914030000.20
0340 : 30 38 30 34 32 39 31 34  30 33 30 30 30 30 F0 30   08042914030000.0
0350 : 30 30 30 30 30 30 30 30  30 30 30 30 30 30 30 00   000000000000000.
0360 : 30 30 30 30 30 30 30 30  30 30 30 30 30 30 30 30   0000000000000000
0370 : 00 01 00 00 00 00 00 00  00 00 00 00 00 00 00 00   ................

Copy Protection: None found

DAT:

<rom name="Dracula D2.bin" size="783639360" crc="4e098dd7" md5="91bd28fe19547399f781833f2bfbaa33" sha1="8c919f9416fed765cb7e4fcf6e4f74f60b0f62d1" />

Cuesheet:

FILE "Dracula D2.bin" BINARY
  TRACK 01 MODE1/2352
    INDEX 01 00:00:00

Write Offset: 0

-----------------------------------------------------------------------------------------------------------------------------------------------
Title: Dracula: Origin
Disc Number / Letter: 3
Disc Title:
System: IBM PC Compatible
Media Type: CD-ROM
Category: Games
Region: USA
Languages: English
Disc Serial: PC0570CD
Ringcode Information:
    Mastering Code (laser branded/etched): CD    10-93549   
    Mastering SID Code:
    Data-Side Mould SID Code:
    Label-Side Mould SID Code:
    Additional Mould:
    Toolstamp or Mastering Code (engraved/stamped):
Barcode: 6 25904 57075 8
ISBN: 1-55345-855-9
Error Count: 0
Comments:
Contents:
Version: 1.00.0777
Edition/Release: Original
Primary Volume Descriptor (PVD):

0320 : 20 20 20 20 20 20 20 20  20 20 20 20 20 32 30 30                200
0330 : 38 30 34 32 39 31 34 30  33 30 30 30 30 F0 32 30   8042914030000.20
0340 : 30 38 30 34 32 39 31 34  30 33 30 30 30 30 F0 30   08042914030000.0
0350 : 30 30 30 30 30 30 30 30  30 30 30 30 30 30 30 00   000000000000000.
0360 : 30 30 30 30 30 30 30 30  30 30 30 30 30 30 30 30   0000000000000000
0370 : 00 01 00 00 00 00 00 00  00 00 00 00 00 00 00 00   ................

Copy Protection: None found

DAT:

<rom name="Dracula D3.bin" size="756690144" crc="eea07522" md5="caf8310c018f57119f9d4247c8f80761" sha1="40dd1923a685c91630b3fe3cbe1cfde13b75f06d" />

Cuesheet:

FILE "Dracula D3.bin" BINARY
  TRACK 01 MODE1/2352
    INDEX 01 00:00:00

Write Offset: 0