Verify
http://redump.org/disc/49907/
http://redump.org/disc/49908/
http://redump.org/disc/49916/


Agatha Christie Evil Under the Sun (Disc 1)
Pics of CD: https://drive.google.com/open?id=1FWuNf … jl5MRe0j1w
Output Files: https://drive.google.com/open?id=1HpkMq … um-52lFKOn

Agatha Christie Evil Under the Sun (Disc 2)
Pics of CD: https://drive.google.com/open?id=1ofYk5 … 3DyO0moSG4
Output Files: https://drive.google.com/open?id=1C6g-m … cEtXHvOd81

Agatha Christie Evil Under the Sun (Disc 3)
https://drive.google.com/open?id=1XeQ8q … oPJiGkGrDd
Output Files: https://drive.google.com/open?id=19jDw7 … OZUq5rE0Ao

Title: Agatha Christie: Evil Under the Sun
Disc Number / Letter: 1
Disc Title:
System: IBM PC Compatible
Media Type: CD-ROM
Category: Games
Region: USA
Languages: English
Disc Serial: PC0543CD
Ringcode Information:
    Mastering Code (laser branded/etched): CD    10-91384
    Mastering SID Code:
    Data-Side Mould SID Code: IFPI V504
    Label-Side Mould SID Code:
    Additional Mould:
    Toolstamp or Mastering Code (engraved/stamped):
Barcode: 6 25904 54360 8
ISBN: 1-55345-827-3
Error Count: 0
Comments:
Contents:
Version: 1.0
Edition/Release: Original
Primary Volume Descriptor (PVD):

0320 : 20 20 20 20 20 20 20 20  20 20 20 20 20 32 30 30                200
0330 : 37 31 30 30 31 30 39 30  35 30 30 30 30 F0 32 30   7100109050000.20
0340 : 30 37 31 30 30 31 30 39  30 35 30 30 30 30 F0 30   07100109050000.0
0350 : 30 30 30 30 30 30 30 30  30 30 30 30 30 30 30 00   000000000000000.
0360 : 30 30 30 30 30 30 30 30  30 30 30 30 30 30 30 30   0000000000000000
0370 : 00 01 00 00 00 00 00 00  00 00 00 00 00 00 00 00   ................

Copy Protection: None found

DAT:

<rom name="CD1.bin" size="787513104" crc="f5233584" md5="6c7534abf75734e61bf0010298510b97" sha1="bd312259102b9e466b8950a795c6c9724e59fdcc" />

Cuesheet:

FILE "CD1.bin" BINARY
  TRACK 01 MODE1/2352
    INDEX 01 00:00:00

Write Offset: 0

-------------------------------------------------------------------------------------------------------------------------------------------------
Title: Agatha Christie: Evil Under the Sun
Disc Number / Letter: 2
Disc Title:
System: IBM PC Compatible
Media Type: CD-ROM
Category: Games
Region: USA
Languages: English
Disc Serial: PC0543CD
Ringcode Information:
    Mastering Code (laser branded/etched): CD    10-91385
    Mastering SID Code:
    Data-Side Mould SID Code:
    Label-Side Mould SID Code:
    Additional Mould:
    Toolstamp or Mastering Code (engraved/stamped):
Barcode: 6 25904 54360 8
ISBN: 1-55345-827-3
Error Count: 0
Comments:
Contents:
Version: 1.0
Edition/Release: Original
Primary Volume Descriptor (PVD):

0320 : 20 20 20 20 20 20 20 20  20 20 20 20 20 32 30 30                200
0330 : 37 31 30 30 31 30 39 30  35 30 30 30 30 F0 32 30   7100109050000.20
0340 : 30 37 31 30 30 31 30 39  30 35 30 30 30 30 F0 30   07100109050000.0
0350 : 30 30 30 30 30 30 30 30  30 30 30 30 30 30 30 00   000000000000000.
0360 : 30 30 30 30 30 30 30 30  30 30 30 30 30 30 30 30   0000000000000000
0370 : 00 01 00 00 00 00 00 00  00 00 00 00 00 00 00 00   ................

Copy Protection: None found

DAT:

<rom name="CD2.bin" size="744078720" crc="12d3b6e5" md5="1a34ad6a7e0d67db65ccf177d3be98de" sha1="51f36d638f36c453015ce4e039593079470c3b02" />

Cuesheet:

FILE "CD2.bin" BINARY
  TRACK 01 MODE1/2352
    INDEX 01 00:00:00

Write Offset: 0
-------------------------------------------------------------------------------------------------------------------------------------------------
Title: Agatha Christie: Evil Under the Sun
Disc Number / Letter: 3
Disc Title:
System: IBM PC Compatible
Media Type: CD-ROM
Category: Games
Region: USA
Languages: English
Disc Serial: PC0543CD
Ringcode Information:
    Mastering Code (laser branded/etched): CD    10-91386
    Mastering SID Code:
    Data-Side Mould SID Code: IFPI V501
    Label-Side Mould SID Code:
    Additional Mould:
    Toolstamp or Mastering Code (engraved/stamped):
Barcode: 6 25904 54360 8
ISBN: 1-55345-827-3
Error Count: 0
Comments:
Contents:
Version: 1.0
Edition/Release: Original
Primary Volume Descriptor (PVD):

0320 : 20 20 20 20 20 20 20 20  20 20 20 20 20 32 30 30                200
0330 : 37 31 30 30 31 30 39 30  35 30 30 30 30 F0 32 30   7100109050000.20
0340 : 30 37 31 30 30 31 30 39  30 35 30 30 30 30 F0 30   07100109050000.0
0350 : 30 30 30 30 30 30 30 30  30 30 30 30 30 30 30 00   000000000000000.
0360 : 30 30 30 30 30 30 30 30  30 30 30 30 30 30 30 30   0000000000000000
0370 : 00 01 00 00 00 00 00 00  00 00 00 00 00 00 00 00   ................

Copy Protection: None found

DAT:

<rom name="CD3.bin" size="79464672" crc="69570ade" md5="71d248f79190c8739acc998c7ac7220b" sha1="2e89a7dcc729ce761ec208d88a3ab14b8643032e" />

Cuesheet:

FILE "CD3.bin" BINARY
  TRACK 01 MODE1/2352
    INDEX 01 00:00:00

Write Offset: 0