Verification of this quite uncommon game smile

https://mega.nz/#F!gNoRQQwD!z29B3gaoYVL_YPwipEyyOw

Deep Fear (Disc 1) : https://mega.nz/#F!wNp10AqY!bhOsrmFBbgUCK9pITIREyw


Title: Deep Fear
Disc Number / Letter: Disc 1
Disc Title: 
System: Sega Saturn
Media Type: CD-ROM
Category: Games
Region: Europe
Languages: English
Disc Serial: MK-81804
Build Date: 19980713
Ringcode Information:
    Mastering Code (laser branded/etched): MK-81804E-0023    12345
    Mastering SID Code: 
    Data-Side Mould SID Code: IFPI 3T03
    Label-Side Mould SID Code: 
    Additional Mould: 
    Toolstamp or Mastering Code (engraved/stamped): A
Barcode: 4 974365 818043
Error Count: 0
Comments: 
Contents: 
Version: V1.001
Edition/Release: Original
Header:

0000 : 53 45 47 41 20 53 45 47  41 53 41 54 55 52 4E 20   SEGA SEGASATURN 
0010 : 53 45 47 41 20 45 4E 54  45 52 50 52 49 53 45 53   SEGA ENTERPRISES
0020 : 4D 4B 2D 38 31 38 30 34  20 20 56 31 2E 30 30 31   MK-81804  V1.001
0030 : 31 39 39 38 30 37 31 33  43 44 2D 31 2F 32 20 20   19980713CD-1/2  
0040 : 45 20 20 20 20 20 20 20  20 20 20 20 20 20 20 20   E               
0050 : 4A 45 20 20 20 20 20 20  20 20 20 20 20 20 20 20   JE              
0060 : 44 45 45 50 20 46 45 41  52 20 20 20 20 20 20 20   DEEP FEAR       
0070 : 20 20 20 20 20 20 20 20  20 20 20 20 20 20 20 20                   
0080 : 20 20 20 20 20 20 20 20  20 20 20 20 20 20 20 20                   
0090 : 20 20 20 20 20 20 20 20  20 20 20 20 20 20 20 20                   
00A0 : 20 20 20 20 20 20 20 20  20 20 20 20 20 20 20 20                   
00B0 : 20 20 20 20 20 20 20 20  20 20 20 20 20 20 20 20                   
00C0 : 20 20 20 20 20 20 20 20  20 20 20 20 20 20 20 20                   
00D0 : 00 00 00 00 00 00 00 00  00 00 00 00 00 00 00 00   ................
00E0 : 00 00 18 00 00 00 00 00  00 00 00 00 00 00 00 00   ................
00F0 : 06 00 40 00 00 00 00 00  00 00 00 00 00 00 00 00   ..@.............

Primary Volume Descriptor (PVD):

0320 : 20 20 20 20 20 20 20 20  20 20 20 20 20 31 39 39                199
0330 : 38 30 37 31 31 32 30 32  31 34 31 30 30 24 31 39   8071120214100$19
0340 : 39 38 30 37 31 31 32 30  32 31 34 31 30 30 24 30   98071120214100$0
0350 : 30 30 30 30 30 30 30 30  30 30 30 30 30 30 30 00   000000000000000.
0360 : 30 30 30 30 30 30 30 30  30 30 30 30 30 30 30 30   0000000000000000
0370 : 00 01 00 00 00 00 00 00  00 00 00 00 00 00 00 00   ................

DAT:

<rom name="DEEPFEAR_DISC1 (Track 1).bin" size="641642064" crc="7f1334dd" md5="a9ab3e4174e4b1c9c6946d2bf74d8e40" sha1="13d10b96b34ca69d6dc150abbc43fb2920c0dee3" />
<rom name="DEEPFEAR_DISC1 (Track 2).bin" size="3168144" crc="b938364b" md5="11580214180e063f8dd3834968854e15" sha1="011b01a16b10eae6590db14867a2f7e31ef50bda" />

Cuesheet:

FILE "DEEPFEAR_DISC1 (Track 1).bin" BINARY
  TRACK 01 MODE1/2352
    INDEX 01 00:00:00
FILE "DEEPFEAR_DISC1 (Track 2).bin" BINARY
  TRACK 02 AUDIO
    INDEX 00 00:00:00
    INDEX 01 00:02:00

Write Offset: 18

Deep Fear (Disc 2)  : https://mega.nz/#F!FNojhIjS!e87uFSRCCavpMJd9fF-BFg :

Title: Deep Fear
Disc Number / Letter: Disc 2
Disc Title: 
System: Sega Saturn
Media Type: CD-ROM
Category: Games
Region: Europe
Languages: English
Disc Serial: MK-81804
Build Date: 19980713
Ringcode Information:
    Mastering Code (laser branded/etched): MK-81804E-0030    A    12345
    Mastering SID Code: 
    Data-Side Mould SID Code: IFPI 3T04
    Label-Side Mould SID Code: 
    Additional Mould: 
    Toolstamp or Mastering Code (engraved/stamped): 
Barcode: 4 974365 818043
Error Count: 0
Comments: 
Contents: 
Version: V1.001
Edition/Release: Original
Header:

0000 : 53 45 47 41 20 53 45 47  41 53 41 54 55 52 4E 20   SEGA SEGASATURN 
0010 : 53 45 47 41 20 45 4E 54  45 52 50 52 49 53 45 53   SEGA ENTERPRISES
0020 : 4D 4B 2D 38 31 38 30 34  20 20 56 31 2E 30 30 31   MK-81804  V1.001
0030 : 31 39 39 38 30 37 31 33  43 44 2D 32 2F 32 20 20   19980713CD-2/2  
0040 : 45 20 20 20 20 20 20 20  20 20 20 20 20 20 20 20   E               
0050 : 4A 45 20 20 20 20 20 20  20 20 20 20 20 20 20 20   JE              
0060 : 44 45 45 50 20 46 45 41  52 20 20 20 20 20 20 20   DEEP FEAR       
0070 : 20 20 20 20 20 20 20 20  20 20 20 20 20 20 20 20                   
0080 : 20 20 20 20 20 20 20 20  20 20 20 20 20 20 20 20                   
0090 : 20 20 20 20 20 20 20 20  20 20 20 20 20 20 20 20                   
00A0 : 20 20 20 20 20 20 20 20  20 20 20 20 20 20 20 20                   
00B0 : 20 20 20 20 20 20 20 20  20 20 20 20 20 20 20 20                   
00C0 : 20 20 20 20 20 20 20 20  20 20 20 20 20 20 20 20                   
00D0 : 00 00 00 00 00 00 00 00  00 00 00 00 00 00 00 00   ................
00E0 : 00 00 18 00 00 00 00 00  00 00 00 00 00 00 00 00   ................
00F0 : 06 00 40 00 00 00 00 00  00 00 00 00 00 00 00 00   ..@.............

Primary Volume Descriptor (PVD):

0320 : 20 20 20 20 20 20 20 20  20 20 20 20 20 31 39 39                199
0330 : 38 30 37 31 31 32 30 34  38 33 31 30 30 24 31 39   8071120483100$19
0340 : 39 38 30 37 31 31 32 30  34 38 33 31 30 30 24 30   98071120483100$0
0350 : 30 30 30 30 30 30 30 30  30 30 30 30 30 30 30 00   000000000000000.
0360 : 30 30 30 30 30 30 30 30  30 30 30 30 30 30 30 30   0000000000000000
0370 : 00 01 00 00 00 00 00 00  00 00 00 00 00 00 00 00   ................

DAT:

<rom name="DEEP_FEAR_DISC_2 (Track 1).bin" size="611381232" crc="dfc9aa2d" md5="4cb8b829edbde14c24e9ac27872db53e" sha1="b6e64c18bbc6fc4cccca5241d411dfc6c98031e8" />
<rom name="DEEP_FEAR_DISC_2 (Track 2).bin" size="3168144" crc="b938364b" md5="11580214180e063f8dd3834968854e15" sha1="011b01a16b10eae6590db14867a2f7e31ef50bda" />

Cuesheet:

FILE "DEEP_FEAR_DISC_2 (Track 1).bin" BINARY
  TRACK 01 MODE1/2352
    INDEX 01 00:00:00
FILE "DEEP_FEAR_DISC_2 (Track 2).bin" BINARY
  TRACK 02 AUDIO
    INDEX 00 00:00:00
    INDEX 01 00:02:00

Write Offset: 18