1 (edited by KailoKyra 2019-04-24 23:52:36)

Some new dumps from a few PC games I bought recently :


Magic Carpet : https://mega.nz/#F!JdpzmS6A!AmtFLeGt1v_o7tnrgqRkNg

Title: Magic Carpet
Disc Number / Letter:
Disc Title: 
System: IBM PC Compatible
Media Type: CD-ROM
Category: Games
Region: France
Languages: English, German, French, Italian
Disc Serial: E3145CXD
Ringcode Information:
    Mastering Code (laser branded/etched): MASTERED BY MAYKING    E3145CXD
    Mastering SID Code: 
    Data-Side Mould SID Code: 
    Label-Side Mould SID Code: 
    Additional Mould: 
    Toolstamp or Mastering Code (engraved/stamped): 
Barcode: 
ISBN: 
Error Count: 3
Comments: 
Contents: 
Version: 
Edition/Release: Original
Primary Volume Descriptor (PVD):

0320 : 20 20 20 20 20 20 20 20  20 20 20 20 20 31 39 39                199
0330 : 34 31 30 32 38 31 33 33  38 33 30 30 30 20 31 39   4102813383000 19
0340 : 39 34 31 30 32 38 31 33  33 38 33 30 30 30 20 00   94102813383000 .
0350 : 00 00 00 00 00 00 00 00  00 00 00 00 00 00 00 00   ................
0360 : 00 00 00 00 00 00 00 00  00 00 00 00 00 00 00 00   ................
0370 : 00 01 00 00 00 00 00 00  00 00 00 00 00 00 00 00   ................

Copy Protection: None found

DAT:

<rom name="CARPET.bin" size="187967136" crc="5a7039ba" md5="4e8171c69be52736ec8c49dde9593069" sha1="ae6837c5c789a74512aae723d6d3a93ec5041ddd" />

Cuesheet:

FILE "CARPET.bin" BINARY
  TRACK 01 MODE1/2352
    INDEX 01 00:00:00

Write Offset: 367


Network$ (I forgot to scan the disc... I'll add it to the folder later) : https://mega.nz/#F!RV52hQDR!bibrB30auWwlIlNd70z1jQ


Title: Network$
Disc Number / Letter: 
Disc Title: 
System: IBM PC Compatible
Media Type: CD-ROM
Category: Games
Region: France
Languages: French
Disc Serial: 
Ringcode Information:
    Mastering Code (laser branded/etched): DADC Austria    NETWOFR5011-V2    13
    Mastering SID Code: IFPI L553
    Data-Side Mould SID Code: IFPI 94C4
    Label-Side Mould SID Code: 
    Additional Mould: 
    Toolstamp or Mastering Code (engraved/stamped): A2
Barcode: 
ISBN: 
Error Count: 0
Comments: 
Contents: Rolling slideshow / demo of the game "Prisonner of Ice"
Version: 
Edition/Release: Original
Primary Volume Descriptor (PVD):

0320 : 20 20 20 20 20 20 20 20  20 20 20 20 20 30 30 30                000
0330 : 30 30 30 30 30 30 30 30  30 30 30 30 30 00 30 30   0000000000000.00
0340 : 30 30 30 30 30 30 30 30  30 30 30 30 30 30 00 30   00000000000000.0
0350 : 30 30 30 30 30 30 30 30  30 30 30 30 30 30 30 00   000000000000000.
0360 : 30 30 30 30 30 30 30 30  30 30 30 30 30 30 30 30   0000000000000000
0370 : 00 01 00 00 00 00 00 00  00 00 00 00 00 00 00 00   ................

Copy Protection: D:\NEWS0001.256: SafeDisc 1
D:\NEWS0002.256: SafeDisc 1
D:\NEWS0003.256: SafeDisc 1
D:\NEWS0004.256: SafeDisc 1
D:\NEWS0005.256: SafeDisc 1
D:\NEWS0006.256: SafeDisc 1
D:\NEWS0007.256: SafeDisc 1
D:\NEWS0008.256: SafeDisc 1
D:\NEWS0009.256: SafeDisc 1
D:\NEWS0010.256: SafeDisc 1
D:\NEWS0011.256: SafeDisc 1
D:\NEWS0013.256: SafeDisc 1
D:\NEWS0014.256: SafeDisc 1
D:\NEWS0015.256: SafeDisc 1
D:\NEWS0016.256: SafeDisc 1
D:\NEWS0017.256: SafeDisc 1
D:\NEWS0018.256: SafeDisc 1
D:\NEWS0019.256: SafeDisc 1
D:\NEWS0020.256: SafeDisc 1
D:\NEWS0021.256: SafeDisc 1
D:\NEWS0022.256: SafeDisc 1
D:\NEWS0023.256: SafeDisc 1
D:\NEWS0024.256: SafeDisc 1
D:\NEWS0025.256: SafeDisc 1
D:\NEWS0026.256: SafeDisc 1
D:\NEWS0027.256: SafeDisc 1
D:\NEWS0028.256: SafeDisc 1
D:\NEWS0029.256: SafeDisc 1
D:\NEWS0030.256: SafeDisc 1
D:\NEWS0031.256: SafeDisc 1
D:\NEWS0032.256: SafeDisc 1
D:\NEWS0033.256: SafeDisc 1
D:\NEWS0034.256: SafeDisc 1
D:\NEWS0038.256: SafeDisc 1
D:\NEWS0039.256: SafeDisc 1
D:\NEWS0040.256: SafeDisc 1
D:\NEWS0041.256: SafeDisc 1
D:\NEWS0042.256: SafeDisc 1
D:\NEWS0043.256: SafeDisc 1
D:\NEWS0044.256: SafeDisc 1
D:\NEWS0045.256: SafeDisc 1
D:\NEWS0046.256: SafeDisc 1
D:\NEWS0048.256: SafeDisc 1
D:\NEWS0049.256: SafeDisc 1
D:\NEWS0050.256: SafeDisc 1
D:\NEWS0051.256: SafeDisc 1
D:\NEWS0054.256: SafeDisc 1
D:\NEWS0055.256: SafeDisc 1
D:\NEWS0056.256: SafeDisc 1
D:\NEWS0057.256: SafeDisc 1
D:\NEWS0058.256: SafeDisc 1
D:\NEWS0060.256: SafeDisc 1
D:\NEWS0061.256: SafeDisc 1
D:\NEWS0062.256: SafeDisc 1
D:\NEWS0063.256: SafeDisc 1
D:\NEWS0064.256: SafeDisc 1
D:\NEWS0065.256: SafeDisc 1
D:\NEWS0066.256: SafeDisc 1
D:\NEWS0067.256: SafeDisc 1
D:\NEWS0068.256: SafeDisc 1
D:\NEWS0069.256: SafeDisc 1
D:\NEWS0070.256: SafeDisc 1
D:\NEWS0071.256: SafeDisc 1
D:\NEWS0072.256: SafeDisc 1
D:\NEWS0073.256: SafeDisc 1
D:\NEWS0076.256: SafeDisc 1
D:\NEWS0077.256: SafeDisc 1
D:\NEWS0079.256: SafeDisc 1
D:\NEWS0080.256: SafeDisc 1
D:\NEWS0081.256: SafeDisc 1
D:\NEWS0082.256: SafeDisc 1
D:\NEWS0083.256: SafeDisc 1
D:\NEWS0084.256: SafeDisc 1
D:\NEWS0085.256: SafeDisc 1
D:\NEWS0087.256: SafeDisc 1
D:\NEWS0088.256: SafeDisc 1
D:\NEWS0089.256: SafeDisc 1
D:\NEWS0090.256: SafeDisc 1
D:\NEWS0091.256: SafeDisc 1
D:\NEWS0092.256: SafeDisc 1
D:\NEWS0093.256: SafeDisc 1
D:\NEWS0094.256: SafeDisc 1
D:\NEWS0095.256: SafeDisc 1
D:\NEWS0096.256: SafeDisc 1
D:\NEWS0097.256: SafeDisc 1
D:\NEWS0098.256: SafeDisc 1
D:\NEWS0099.256: SafeDisc 1
D:\NEWS0100.256: SafeDisc 1
D:\NEWS0102.256: SafeDisc 1
D:\NEWS0103.256: SafeDisc 1
D:\NEWS0105.256: SafeDisc 1
D:\NEWS0106.256: SafeDisc 1
D:\NEWS0113.256: SafeDisc 1
D:\NEWS0114.256: SafeDisc 1
D:\NEWS0115.256: SafeDisc 1
D:\NEWS0116.256: SafeDisc 1
D:\NEWS0117.256: SafeDisc 1
D:\NEWS0119.256: SafeDisc 1
D:\NEWS0120.256: SafeDisc 1
D:\NEWS0121.256: SafeDisc 1
D:\NEWS0122.256: SafeDisc 1
D:\NEWS0124.256: SafeDisc 1
D:\NEWS0125.256: SafeDisc 1
D:\NEWS0127.256: SafeDisc 1
D:\NEWS0128.256: SafeDisc 1
D:\NEWS0131.256: SafeDisc 1
D:\NEWS0132.256: SafeDisc 1
D:\NEWS0133.256: SafeDisc 1
D:\NEWS0134.256: SafeDisc 1
D:\NEWS0135.256: SafeDisc 1
D:\NEWS0136.256: SafeDisc 1
D:\NEWS0137.256: SafeDisc 1
D:\NEWS0138.256: SafeDisc 1
D:\NEWS0139.256: SafeDisc 1
D:\NEWS0140.256: SafeDisc 1
D:\NEWS0141.256: SafeDisc 1
D:\NEWS0142.256: SafeDisc 1
D:\NEWS0143.256: SafeDisc 1
D:\NEWS0144.256: SafeDisc 1
D:\NEWS0145.256: SafeDisc 1
D:\NEWS0146.256: SafeDisc 1
D:\NEWS0147.256: SafeDisc 1
D:\NEWS0148.256: SafeDisc 1
D:\NEWS0149.256: SafeDisc 1
D:\NEWS0150.256: SafeDisc 1
D:\RE_001.256: SafeDisc 1
D:\RE_002.256: SafeDisc 1
D:\RE_003.256: SafeDisc 1
D:\RE_005.256: SafeDisc 1
D:\RE_006.256: SafeDisc 1
D:\RE_007.256: SafeDisc 1
D:\RE_011.256: SafeDisc 1
D:\RE_013.256: SafeDisc 1
D:\RE_014.256: SafeDisc 1
D:\RE_016.256: SafeDisc 1
D:\RE_017.256: SafeDisc 1
D:\RE_021.256: SafeDisc 1
D:\RE_039.256: SafeDisc 1
D:\RE_041.256: SafeDisc 1
D:\RE_042.256: SafeDisc 1
D:\RE_043.256: SafeDisc 1
D:\RE_044.256: SafeDisc 1
D:\RE_057.256: SafeDisc 1
D:\RE_061.256: SafeDisc 1
D:\RE_068.256: SafeDisc 1
D:\RE_069.256: SafeDisc 1
D:\RE_076.256: SafeDisc 1
D:\RE_077.256: SafeDisc 1
D:\RE_082.256: SafeDisc 1
D:\RE_085.256: SafeDisc 1
D:\RE_090.256: SafeDisc 1
D:\RE_094.256: SafeDisc 1
D:\RE_095.256: SafeDisc 1
D:\RE_096.256: SafeDisc 1
D:\RE_099.256: SafeDisc 1
D:\RE_100.256: SafeDisc 1
D:\RE_103.256: SafeDisc 1
D:\RE_122.256: SafeDisc 1
D:\RE_125.256: SafeDisc 1
D:\RE_131.256: SafeDisc 1
D:\RE_132.256: SafeDisc 1
D:\HD\AN1000.256: SafeDisc 1
D:\HD\CONFIRM1.256: SafeDisc 1
D:\HD\CONFIRM2.256: SafeDisc 1
D:\HD\F000.256: SafeDisc 1
D:\HD\F001.256: SafeDisc 1
D:\HD\F010.256: SafeDisc 1
D:\HD\F011.256: SafeDisc 1
D:\HD\F020.256: SafeDisc 1
D:\HD\F021.256: SafeDisc 1
D:\HD\F030.256: SafeDisc 1
D:\HD\F031.256: SafeDisc 1
D:\HD\F040.256: SafeDisc 1
D:\HD\F041.256: SafeDisc 1
D:\HD\F050.256: SafeDisc 1
D:\HD\F051.256: SafeDisc 1
D:\HD\F060.256: SafeDisc 1
D:\HD\F061.256: SafeDisc 1
D:\HD\F070.256: SafeDisc 1
D:\HD\F071.256: SafeDisc 1
D:\HD\F080.256: SafeDisc 1
D:\HD\F081.256: SafeDisc 1
D:\HD\F090.256: SafeDisc 1
D:\HD\F091.256: SafeDisc 1
D:\HD\F100.256: SafeDisc 1
D:\HD\F101.256: SafeDisc 1
D:\HD\F110.256: SafeDisc 1
D:\HD\F111.256: SafeDisc 1
D:\HD\F120.256: SafeDisc 1
D:\HD\F121.256: SafeDisc 1
D:\HD\F130.256: SafeDisc 1
D:\HD\F131.256: SafeDisc 1
D:\HD\F140.256: SafeDisc 1
D:\HD\F141.256: SafeDisc 1
D:\HD\F150.256: SafeDisc 1
D:\HD\F151.256: SafeDisc 1
D:\HD\F160.256: SafeDisc 1
D:\HD\F161.256: SafeDisc 1
D:\HD\F170.256: SafeDisc 1
D:\HD\F171.256: SafeDisc 1
D:\HD\F180.256: SafeDisc 1
D:\HD\F181.256: SafeDisc 1
D:\HD\F190.256: SafeDisc 1
D:\HD\F191.256: SafeDisc 1
D:\HD\F200.256: SafeDisc 1
D:\HD\F201.256: SafeDisc 1
D:\HD\F210.256: SafeDisc 1
D:\HD\F211.256: SafeDisc 1
D:\HD\F220.256: SafeDisc 1
D:\HD\F221.256: SafeDisc 1
D:\HD\F230.256: SafeDisc 1
D:\HD\F231.256: SafeDisc 1
D:\HD\F240.256: SafeDisc 1
D:\HD\F241.256: SafeDisc 1
D:\HD\F250.256: SafeDisc 1
D:\HD\F251.256: SafeDisc 1
D:\HD\F260.256: SafeDisc 1
D:\HD\F261.256: SafeDisc 1
D:\HD\F270.256: SafeDisc 1
D:\HD\F271.256: SafeDisc 1
D:\HD\F280.256: SafeDisc 1
D:\HD\F281.256: SafeDisc 1
D:\HD\F290.256: SafeDisc 1
D:\HD\F291.256: SafeDisc 1
D:\HD\F300.256: SafeDisc 1
D:\HD\F301.256: SafeDisc 1
D:\HD\F310.256: SafeDisc 1
D:\HD\F311.256: SafeDisc 1
D:\HD\FONDG.256: SafeDisc 1
D:\HD\FONDG2.256: SafeDisc 1
D:\HD\FONDP.256: SafeDisc 1
D:\HD\FONDP2.256: SafeDisc 1
D:\HD\MENUC1A.256: SafeDisc 1
D:\HD\MENUC1B.256: SafeDisc 1
D:\HD\MENUC3A.256: SafeDisc 1
D:\HD\MENUC3B.256: SafeDisc 1
D:\HD\MENUC4A.256: SafeDisc 1
D:\HD\MENUC4B.256: SafeDisc 1
D:\HD\MENUDAY.256: SafeDisc 1
D:\HD\MENUQK.256: SafeDisc 1
D:\HD\MENURPT.256: SafeDisc 1
D:\HD\MENUSAT1.256: SafeDisc 1
D:\HD\MENUSAT2.256: SafeDisc 1
D:\HD\MENUSAT3.256: SafeDisc 1
D:\HD\MENUSATA.256: SafeDisc 1
D:\HD\MENUSATB.256: SafeDisc 1
D:\HD\MENUSATC.256: SafeDisc 1
D:\HD\MENUSYS1.256: SafeDisc 1
D:\HD\MENUSYS2.256: SafeDisc 1
D:\HD\MENUTTL1.256: SafeDisc 1
D:\HD\OK.256: SafeDisc 1
D:\HD\ONLINE.256: SafeDisc 1
D:\HD\OVER00.256: SafeDisc 1
D:\HD\OVER01.256: SafeDisc 1
D:\HD\OVER02.256: SafeDisc 1
D:\HD\OVER03.256: SafeDisc 1
D:\HD\OVER04.256: SafeDisc 1
D:\HD\OVER05.256: SafeDisc 1
D:\HD\OVER06.256: SafeDisc 1
D:\HD\SELECT.256: SafeDisc 1
D:\HD\STOCK.256: SafeDisc 1
D:\HD\SYARYO1.256: SafeDisc 1
D:\HD\SYARYO2.256: SafeDisc 1
D:\HD\SYARYO3.256: SafeDisc 1
D:\HD\SYARYO4.256: SafeDisc 1
D:\HD\TCARD00.256: SafeDisc 1
D:\HD\TCARD01.256: SafeDisc 1
D:\HD\TCARD02.256: SafeDisc 1
D:\HD\TCARD03.256: SafeDisc 1
D:\HD\TCARD04.256: SafeDisc 1
D:\HD\TCARD05.256: SafeDisc 1
D:\HD\TCARD06.256: SafeDisc 1
D:\HD\TCARD07.256: SafeDisc 1
D:\HD\TCARD08.256: SafeDisc 1
D:\HD\TCARD09.256: SafeDisc 1
D:\HD\TCARD10.256: SafeDisc 1
D:\HD\TCARD11.256: SafeDisc 1
D:\HD\TCARD12.256: SafeDisc 1
D:\HD\TCARD13.256: SafeDisc 1
D:\HD\TCARD14.256: SafeDisc 1
D:\HD\TCARD15.256: SafeDisc 1
D:\HD\TCARD16.256: SafeDisc 1
D:\HD\TCARD17.256: SafeDisc 1
D:\HD\TCARD18.256: SafeDisc 1
D:\HD\TCARD19.256: SafeDisc 1
D:\HD\TCARD20.256: SafeDisc 1
D:\HD\TCARD21.256: SafeDisc 1
D:\HD\TCARD22.256: SafeDisc 1
D:\HD\TCARD23.256: SafeDisc 1
D:\HD\TCARD24.256: SafeDisc 1
D:\HD\TCARD25.256: SafeDisc 1
D:\HD\TCARD26.256: SafeDisc 1
D:\HD\TCARD27.256: SafeDisc 1
D:\HD\TCARD28.256: SafeDisc 1
D:\HD\TCARD29.256: SafeDisc 1
D:\HD\TCARD30.256: SafeDisc 1
D:\HD\TCARD31.256: SafeDisc 1
D:\HD\TCARD32.256: SafeDisc 1
D:\HD\TCARD33.256: SafeDisc 1
D:\HD\TCARD34.256: SafeDisc 1
D:\HD\TCARD35.256: SafeDisc 1
D:\HD\TCARD36.256: SafeDisc 1
D:\HD\TCARD37.256: SafeDisc 1
D:\HD\TCARD38.256: SafeDisc 1
D:\HD\TCARD39.256: SafeDisc 1
D:\HD\TCARD40.256: SafeDisc 1
D:\HD\TCARD41.256: SafeDisc 1
D:\HD\TCARD42.256: SafeDisc 1
D:\HD\TCARD43.256: SafeDisc 1
D:\HD\TCARD44.256: SafeDisc 1
D:\HD\TCARD45.256: SafeDisc 1
D:\HD\TCARD46.256: SafeDisc 1
D:\HD\TCARD47.256: SafeDisc 1
D:\HD\TCARD48.256: SafeDisc 1
D:\HD\TCARD49.256: SafeDisc 1
D:\HD\TCARD50.256: SafeDisc 1
D:\HD\TCARD51.256: SafeDisc 1

DAT:

<rom name="Network$ (Track 01).bin" size="563522736" crc="b1646517" md5="c3df97de5c00e9adbf28fd37d929e328" sha1="256ac3595497b043bd0569190ed00858cd8d444a" />
<rom name="Network$ (Track 02).bin" size="15995952" crc="9a212a8b" md5="673e189355a6144957c47feb3e1b1009" sha1="c35e506d0367ebb45a3ddc72d2e3b0c80656f098" />
<rom name="Network$ (Track 03).bin" size="16266432" crc="ce296af4" md5="6a10fe0f92e2ff015682091c29990de1" sha1="86ccae4a8f2c34a9185d6c458a20d82b0c264a3b" />
<rom name="Network$ (Track 04).bin" size="16750944" crc="330b2514" md5="d3b35115b07eafb01181431568379822" sha1="fdd7c82bfc3241932da8fa4d4e005e0192fd61ac" />
<rom name="Network$ (Track 05).bin" size="16010064" crc="cd04f4b0" md5="aeda4a0d71111658e1d4033390dfd91f" sha1="6ce024688a7e2ec4d8d6d58611851aa433eded2d" />
<rom name="Network$ (Track 06).bin" size="1764000" crc="881f4130" md5="e6c3c6fdce9acea86fe60b22c8b9a012" sha1="8c620e31c1ddbc1e163454dc44e48b6ac155f1b4" />
<rom name="Network$ (Track 07).bin" size="2479008" crc="bcb7d40d" md5="542a5cdb929ea0a0afcb8b466e71539d" sha1="061df19d2eeabf7ad026d18434d3209f7e9f6936" />
<rom name="Network$ (Track 08).bin" size="1676976" crc="4380edd3" md5="03620753109c8f029d804fd95569d34b" sha1="e582dde29aed49c90a8fa85ab49f1b77d4077232" />
<rom name="Network$ (Track 09).bin" size="2909424" crc="33f3e58b" md5="83a3b2b99430b6266df92aa7f6cd063b" sha1="0e67e36fed98294479e13f2aadaca5b410eada7e" />
<rom name="Network$ (Track 10).bin" size="2246160" crc="d919faa2" md5="534ea18ad65124493ea5bde111b71590" sha1="279c49e322111d5d97bfee79d8e72f98d54f17fe" />
<rom name="Network$ (Track 11).bin" size="2770656" crc="59e26deb" md5="f3653f7d2d9f0f8efc825f0303c90d28" sha1="7378a7bd8513e50c1f19ed49baae59eef70a2f89" />
<rom name="Network$ (Track 12).bin" size="729120" crc="3eb89df1" md5="6e4f3cd40a13f68f4b1780ca58099f44" sha1="11f66bfe22ac889f7c6358a6562cf1fb2aeb35a1" />
<rom name="Network$ (Track 13).bin" size="43639008" crc="1181a67a" md5="c797c2dcf1d966efa6fa5d6befea097f" sha1="d5ed15c58eab2b0f0ad83122bf150cac302419e6" />

Cuesheet:

CATALOG 0000000000000
FILE "Network$ (Track 01).bin" BINARY
  TRACK 01 MODE1/2352
    INDEX 01 00:00:00
FILE "Network$ (Track 02).bin" BINARY
  TRACK 02 AUDIO
    INDEX 00 00:00:00
    INDEX 01 00:02:00
FILE "Network$ (Track 03).bin" BINARY
  TRACK 03 AUDIO
    INDEX 00 00:00:00
    INDEX 01 00:02:00
FILE "Network$ (Track 04).bin" BINARY
  TRACK 04 AUDIO
    INDEX 00 00:00:00
    INDEX 01 00:02:00
FILE "Network$ (Track 05).bin" BINARY
  TRACK 05 AUDIO
    INDEX 00 00:00:00
    INDEX 01 00:02:00
FILE "Network$ (Track 06).bin" BINARY
  TRACK 06 AUDIO
    INDEX 00 00:00:00
    INDEX 01 00:02:00
FILE "Network$ (Track 07).bin" BINARY
  TRACK 07 AUDIO
    INDEX 00 00:00:00
    INDEX 01 00:02:00
FILE "Network$ (Track 08).bin" BINARY
  TRACK 08 AUDIO
    INDEX 00 00:00:00
    INDEX 01 00:02:00
FILE "Network$ (Track 09).bin" BINARY
  TRACK 09 AUDIO
    INDEX 00 00:00:00
    INDEX 01 00:02:00
FILE "Network$ (Track 10).bin" BINARY
  TRACK 10 AUDIO
    INDEX 00 00:00:00
    INDEX 01 00:02:00
FILE "Network$ (Track 11).bin" BINARY
  TRACK 11 AUDIO
    INDEX 00 00:00:00
    INDEX 01 00:02:00
FILE "Network$ (Track 12).bin" BINARY
  TRACK 12 AUDIO
    INDEX 00 00:00:00
    INDEX 01 00:02:00
FILE "Network$ (Track 13).bin" BINARY
  TRACK 13 AUDIO
    INDEX 00 00:00:00
    INDEX 01 01:02:00

Write Offset: 0

Rayman 2: A Grande Fuga : https://mega.nz/#F!RExUxQAR!s_9VNXOVrVeljoCQMWa62A

Title: Rayman 2: A Grande Fuga
Disc Number / Letter: 
Disc Title: 
System: IBM PC Compatible
Media Type: CD-ROM
Category: Games
Region: Brazil
Languages: English, French, German, Spanish, Italian
Disc Serial: SORO 297
Ringcode Information:
    Mastering Code (laser branded/etched): SORO297 19927    VIDEOLAR
    Mastering SID Code: IFPI L562
    Data-Side Mould SID Code: IFPI 9681
    Label-Side Mould SID Code: 
    Additional Mould: 
    Toolstamp or Mastering Code (engraved/stamped): 
Barcode: 7 898132 624033 >
ISBN: 
Error Count: 0
Comments: 
Contents: 
Version: 
Edition/Release: Original
Primary Volume Descriptor (PVD):

0320 : 20 20 20 20 20 20 20 20  20 20 20 20 20 31 39 39                199
0330 : 39 31 31 31 38 31 33 35  37 35 34 30 30 EC 31 39   9111813575400.19
0340 : 39 39 31 31 31 38 31 33  35 37 35 34 30 30 EC 32   99111813575400.2
0350 : 30 30 39 31 31 31 38 31  33 35 37 35 34 30 30 EC   009111813575400.
0360 : 31 39 39 39 31 31 31 38  31 33 35 37 35 34 30 30   1999111813575400
0370 : EC 01 00 43 44 20 52 65  70 20 32 2E 30 2E 31 34   ...CD Rep 2.0.14

Copy Protection: D:\00000001.TMP: SafeDisc v1 or greater
D:\0000040c.016: SafeDisc 1
D:\0000040c.256: SafeDisc 1
D:\clcd32.dll: SafeDisc
D:\clokspl.exe: SafeDisc
D:\dplayerx.dll: SafeDisc
D:\drvmgt.dll: SafeDisc 1.1x-1.3x
D:\RAYMAN2.ICD: SafeDisc 1
D:\secdrv.sys: SafeDisc v2 or greater

DAT:

<rom name="RAYMAN2.bin" size="762391392" crc="69b6d181" md5="03cc8307d5b797b293e61d6b15f1408e" sha1="12dbf361f7df239abeba73577a5ed0d536f159ca" />

Cuesheet:

CATALOG 0000000000000
FILE "RAYMAN2.bin" BINARY
  TRACK 01 MODE1/2352
    INDEX 01 00:00:00

Write Offset: 0