1 (edited by KailoKyra 2019-04-24 23:51:06)

Some verifications from a few games that I recently bought :

Aces of The Deep : https://mega.nz/#F!JVBDHKAR!BBZ6JfRiZpbN4mNW52LzMg

Title: Aces of the Deep
Disc Number / Letter: 
Disc Title: 
System: IBM PC Compatible
Media Type: CD-ROM
Category: Games
Region: France
Languages: English, French, German
Disc Serial: S411BB1012ZZZ
Ringcode Information:
    Mastering Code (laser branded/etched): ACE OF THR DEEP 03 NOV 94    MPO    01 @@ 9
    Mastering SID Code: 
    Data-Side Mould SID Code: 
    Label-Side Mould SID Code: 
    Additional Mould: 
    Toolstamp or Mastering Code (engraved/stamped): 
Barcode: 3 348542 001480
ISBN: 
Error Count: 0
Comments: 
Contents: 
Version: 
Edition/Release: Original
Primary Volume Descriptor (PVD):

0320 : 20 20 20 20 20 20 20 20  20 20 20 20 20 31 39 39                199
0330 : 34 31 30 32 37 31 34 34  30 32 33 30 30 E4 31 39   4102714402300.19
0340 : 39 34 31 30 32 37 31 34  34 30 32 33 30 30 E4 30   94102714402300.0
0350 : 30 30 30 30 30 30 30 30  30 30 30 30 30 30 30 00   000000000000000.
0360 : 30 30 30 30 30 30 30 30  30 30 30 30 30 30 30 30   0000000000000000
0370 : 00 01 00 00 00 00 00 00  00 00 00 00 00 00 00 00   ................

Copy Protection: None found

DAT:

<rom name="Aces of the Deep.bin" size="478855440" crc="bdfbcf4c" md5="63375ccd0cd6118f4622c469bed0c073" sha1="91a39ff54d3aaf0455af4d8d2e6b63fec606a654" />

Cuesheet:

FILE "Aces of the Deep.bin" BINARY
  TRACK 01 MODE1/2352
    INDEX 01 00:00:00

Write Offset: -22

Tonic Trouble (in bundle with the Matrox G200) :  https://mega.nz/#F!NE4HGSjS!WZx1x_1bP0pw_OTlMk2v3A

Title: Tonic Trouble
Disc Number / Letter: 
Disc Title: Mystique G200
System: IBM PC Compatible
Media Type: CD-ROM
Category: Games
Region: USA
Languages: English, French, German, Italian, Spanish
Disc Serial: 20049
Ringcode Information:
    Mastering Code (laser branded/etched): Made in Canada by Saturn    SM1613B    /G2MY-TT-CD401 V4.0
    Mastering SID Code: 
    Data-Side Mould SID Code: 
    Label-Side Mould SID Code: 
    Additional Mould: 
    Toolstamp or Mastering Code (engraved/stamped):
Barcode:
ISBN: 
Error Count: 0
Comments: Bundled with the Mystique G200 graphics card
Contents: Demos of Tiny Trails, Tomb Raider 2, Redline Racer, Outwars, Fighting Force, Nice 2
Version: 8.6.6 (April 30 1998)
Edition/Release: Bundled with graphics card
Primary Volume Descriptor (PVD):

0320 : 20 20 20 20 20 20 20 20  20 20 20 20 20 31 39 39                199
0330 : 38 30 38 30 35 31 35 33  36 30 31 30 30 00 31 39   8080515360100.19
0340 : 39 38 30 38 30 35 31 35  33 36 30 31 30 30 00 32   98080515360100.2
0350 : 30 30 38 30 38 30 32 31  35 33 36 30 31 30 30 00   008080215360100.
0360 : 31 39 39 38 30 38 30 35  31 35 33 36 30 31 30 30   1998080515360100
0370 : 00 01 00 00 00 00 00 00  00 00 00 00 00 00 00 00   ................

Copy Protection: None found

DAT:

<rom name="Tonic_Trouble_Matrox_G200.bin" size="689978016" crc="7be31f36" md5="508e36dfc867996f57580f3d04a80432" sha1="24678051b8c3e1530377a6c135d0916f3f2379d3" />

Cuesheet:

FILE "Tonic_Trouble_Matrox_G200.bin" BINARY
  TRACK 01 MODE1/2352
    INDEX 01 00:00:00

Write Offset: -12


Tonic Trouble (Retail version sold in Belgium) : https://mega.nz/#F!8YpADKDS!Yd4ceDAqH_WoOyPFK1Ou-w

Title: Tonic Trouble
Disc Number / Letter: 
Disc Title: 
System: IBM PC Compatible
Media Type: CD-ROM
Category: Games
Region: Belgium
Languages: English
Disc Serial: 
Ringcode Information:
    Mastering Code (laser branded/etched): Sonopress ROM A-13482/ TONICLOGO A
    Mastering SID Code: IFPI LB46
    Data-Side Mould SID Code: IFPI 0795
    Label-Side Mould SID Code: 
    Additional Mould: 
    Toolstamp or Mastering Code (engraved/stamped): 
Barcode: 3 362932 269106
ISBN: 
Error Count: 0
Comments: Box is in Spanish & Dutch. But the disc for the version sold in Belgium is the English version
Contents: 
Version: 
Edition/Release: Original
Primary Volume Descriptor (PVD):

0320 : 20 20 20 20 20 20 20 20  20 20 20 20 20 31 39 39                199
0330 : 39 31 31 30 32 31 34 32  38 31 30 30 30 00 31 39   9110214281000.19
0340 : 39 39 31 31 30 32 31 34  32 38 31 30 30 30 00 32   99110214281000.2
0350 : 30 30 39 31 30 33 30 31  34 32 38 31 30 30 30 00   009103014281000.
0360 : 31 39 39 39 31 31 30 32  31 34 32 38 31 30 30 30   1999110214281000
0370 : 00 01 00 00 00 00 00 00  00 00 00 00 00 00 00 00   ................

Copy Protection: None found

DAT:

<rom name="TT.bin" size="805324800" crc="c195015e" md5="a68463c083dfec648b5e0d63c7663ddb" sha1="481d909b18775bc8cb144eeae84997245dbf826e" />

Cuesheet:

FILE "TT.bin" BINARY
  TRACK 01 MODE1/2352
    INDEX 01 00:00:00

Write Offset: -12