Hi, guys.

I'm happy in submit my first dump!

The Beast Within: Um Mistério de Gabriel Knight (Disc 1)

Title: The Beast Within: Um Mistério de Gabriel Knight (Disc 1)
Disc Number / Letter: 1
Disc Title:
System: IBM PC Compatible
Media Type: CD-ROM
Category: Games
Region: Brazil
Languages: English / Brazilian Portuguese
Disc Serial:
Ringcode Information:
    Mastering Code (laser branded/etched): SONOPRESS    SORO055    3848/96
    Mastering SID Code: IFPI L029
    Label-Side Mould SID Code:
    Data-Side Mould SID Code:
    Additional Mould:
    Toolstamp or Mastering Code (engraved/stamped):
Barcode:
ISBN: (OPTIONAL)
Error Count: 0
Comments: A Fera Interior: Um Mistério de Gabriel Knight (Disc 1)
Contents:
Version: 1.0
Edition/Release: Original
Primary Volume Descriptor (PVD):

0320 : 00 00 00 00 00 00 00 00  00 00 00 00 00 31 39 39   .............199
0330 : 34 30 31 31 32 31 32 30  30 30 30 30 30 E0 31 39   4011212000000.19
0340 : 39 34 30 31 31 32 31 32  30 30 30 30 30 30 E0 30   94011212000000.0
0350 : 30 30 30 30 30 30 30 30  30 30 30 30 30 30 30 00   000000000000000.
0360 : 31 39 39 34 30 31 31 32  31 32 30 30 30 30 30 30   1994011212000000
0370 : E0 01 00 00 00 00 00 00  00 00 00 00 00 00 00 00   ................

Copy Protection: None found

DAT:

<rom name="The Beast Within - Um Mistério de Gabriel Knight (Disc 1).bin" size="691436256" crc="88f48908" md5="344d9b8d109a955c7798f72928340ccb" sha1="60f56b24694f85bd59652ef86902e25619f7024a" />

Cuesheet:

FILE "The Beast Within - Um Mist�rio de Gabriel Knight (Disc 1).bin" BINARY
  TRACK 01 MODE1/2352
    INDEX 01 00:00:00

Write Offset: 813

The Beast Within: Um Mistério de Gabriel Knight (Disc 2)

Title: The Beast Within: Um Mistério de Gabriel Knight (Disc 2)
Disc Number / Letter: 2
Disc Title:
System: IBM PC Compatible
Media Type: CD-ROM
Category: Games
Region: Brazil
Languages: English / Brazilian Portuguese
Disc Serial:
Ringcode Information:
    Mastering Code (laser branded/etched): SONOPRESS    SORO060    3862/96
    Mastering SID Code: IFPI L029
    Label-Side Mould SID Code:
    Data-Side Mould SID Code:
    Additional Mould:
    Toolstamp or Mastering Code (engraved/stamped):
Barcode:
ISBN:
Error Count: 0
Comments: A Fera Interior: Um Mistério de Gabriel Knight (Disc 2)
Contents:
Version: 1.0
Edition/Release: Original
Primary Volume Descriptor (PVD):

0320 : 00 00 00 00 00 00 00 00  00 00 00 00 00 31 39 39   .............199
0330 : 34 30 31 31 32 31 32 30  30 30 30 30 30 E0 31 39   4011212000000.19
0340 : 39 34 30 31 31 32 31 32  30 30 30 30 30 30 E0 30   94011212000000.0
0350 : 30 30 30 30 30 30 30 30  30 30 30 30 30 30 30 00   000000000000000.
0360 : 31 39 39 34 30 31 31 32  31 32 30 30 30 30 30 30   1994011212000000
0370 : E0 01 00 00 00 00 00 00  00 00 00 00 00 00 00 00   ................

Copy Protection: None found

DAT:

<rom name="The Beast Within - Um Mistério de Gabriel Knight (Disc 2).bin" size="671107920" crc="e5ef8050" md5="c3f7b15ded85bde35e835d7452f7724e" sha1="3216bea0d296070ab4f2c98334e74f7d1678fa19" />

Cuesheet:

FILE "The Beast Within - Um Mist�rio de Gabriel Knight (Disc 2).bin" BINARY
  TRACK 01 MODE1/2352
    INDEX 01 00:00:00

Write Offset: 418

The Beast Within: Um Mistério de Gabriel Knight (Disc 3)

Title: The Beast Within: Um Mistério de Gabriel Knight (Disc 3)
Disc Number / Letter: 3
Disc Title: 
System: IBM PC Compatible
Media Type: CD-ROM
Category: Games
Region: Brazil
Languages: English / Brazilian Portuguese
Disc Serial:
Ringcode Information:
    Mastering Code (laser branded/etched): SONOPRESS    SORO057    3961/96
    Mastering SID Code: IFPI L029
    Label-Side Mould SID Code:
    Data-Side Mould SID Code:
    Additional Mould:
    Toolstamp or Mastering Code (engraved/stamped):
Barcode:
ISBN:
Error Count: 0
Comments: A Fera Interior: Um Mistério de Gabriel Knight (Disc 3)
Contents:
Version: 1.0
Edition/Release: Original
Primary Volume Descriptor (PVD):

0320 : 00 00 00 00 00 00 00 00  00 00 00 00 00 31 39 39   .............199
0330 : 34 30 31 31 32 31 32 30  30 30 30 30 30 E0 31 39   4011212000000.19
0340 : 39 34 30 31 31 32 31 32  30 30 30 30 30 30 E0 30   94011212000000.0
0350 : 30 30 30 30 30 30 30 30  30 30 30 30 30 30 30 00   000000000000000.
0360 : 31 39 39 34 30 31 31 32  31 32 30 30 30 30 30 30   1994011212000000
0370 : E0 01 00 00 00 00 00 00  00 00 00 00 00 00 00 00   ................

Copy Protection: None found

DAT:

<rom name="The Beast Within - Um Mistério de Gabriel Knight (Disc 3).bin" size="706674864" crc="8612fea1" md5="b7b8cc6a41e1df0bdcac593df2f10240" sha1="a847960879e2a242754cf8e7759d0bce97cac16b" />

Cuesheet:

FILE "The Beast Within - Um Mist�rio de Gabriel Knight (Disc 3).bin" BINARY
  TRACK 01 MODE1/2352
    INDEX 01 00:00:00

Write Offset: 753

The Beast Within: Um Mistério de Gabriel Knight (Disc 4)

Title: The Beast Within: Um Mistério de Gabriel Knight (Disc 4)
Disc Number / Letter: 4
Disc Title:
System: IBM PC Compatible
Media Type: CD-ROM
Category: Games
Region: Brazil
Languages: English / Brazilian Portuguese
Disc Serial:
Ringcode Information:
    Mastering Code (laser branded/etched): SONOPRESS    SORO058    3861/96
    Mastering SID Code: IFPI L029
    Label-Side Mould SID Code:
    Data-Side Mould SID Code:
    Additional Mould:
    Toolstamp or Mastering Code (engraved/stamped):
Barcode:
ISBN:
Error Count: 0
Comments: A Fera Interior: Um Mistério de Gabriel Knight (Disc 4)
Contents:
Version: 1.0
Edition/Release: Original
Primary Volume Descriptor (PVD):

0320 : 00 00 00 00 00 00 00 00  00 00 00 00 00 31 39 39   .............199
0330 : 34 30 31 31 32 31 32 30  30 30 30 30 30 E0 31 39   4011212000000.19
0340 : 39 34 30 31 31 32 31 32  30 30 30 30 30 30 E0 30   94011212000000.0
0350 : 30 30 30 30 30 30 30 30  30 30 30 30 30 30 30 00   000000000000000.
0360 : 31 39 39 34 30 31 31 32  31 32 30 30 30 30 30 30   1994011212000000
0370 : E0 01 00 00 00 00 00 00  00 00 00 00 00 00 00 00   ................

Copy Protection: None found

DAT:

<rom name="The Beast Within - Um Mistério de Gabriel Knight (Disc 4).bin" size="711957456" crc="ca3a7c2b" md5="c5fdda6181ac6b1286ec700c29b67c11" sha1="6c531bda164d61b774d6aedf4d18355f97fa4553" />

Cuesheet:

FILE "The Beast Within - Um Mist�rio de Gabriel Knight (Disc 4).bin" BINARY
  TRACK 01 MODE1/2352
    INDEX 01 00:00:00

Write Offset: 809

The Beast Within: Um Mistério de Gabriel Knight (Disc 5)

Title: Um Mistério de Gabriel Knight (Disc 5)
Disc Number / Letter: 5
Disc Title:
System: IBM PC Compatible
Media Type: CD-ROM
Category: Games
Region: Brazil
Languages: English / Brazilian Portuguese
Disc Serial:
Ringcode Information:
    Mastering Code (laser branded/etched): SONOPRESS    SORO059    3771/96
    Mastering SID Code: IFPI L029
    Label-Side Mould SID Code:
    Data-Side Mould SID Code:
    Additional Mould:
    Toolstamp or Mastering Code (engraved/stamped):
Barcode:
ISBN:
Error Count: 0
Comments: A Fera Interior: Um Mistério de Gabriel Knight (Disc 5)
Contents:
Version: 1.0
Edition/Release: Original
Primary Volume Descriptor (PVD):

0320 : 00 00 00 00 00 00 00 00  00 00 00 00 00 31 39 39   .............199
0330 : 34 30 31 31 32 31 32 30  30 30 30 30 30 E0 31 39   4011212000000.19
0340 : 39 34 30 31 31 32 31 32  30 30 30 30 30 30 E0 30   94011212000000.0
0350 : 30 30 30 30 30 30 30 30  30 30 30 30 30 30 30 00   000000000000000.
0360 : 31 39 39 34 30 31 31 32  31 32 30 30 30 30 30 30   1994011212000000
0370 : E0 01 00 00 00 00 00 00  00 00 00 00 00 00 00 00   ................

Copy Protection: None found

DAT:

<rom name="The Beast Within - Um Mistério de Gabriel Knight (Disc 5).bin" size="696220224" crc="6cf586ab" md5="df25f91aa7de13b3866b77faef44947e" sha1="dadc3b5ecb5348d743f6ed833e6156a0bf4ab061" />

Cuesheet:

FILE "The Beast Within - Um Mist�rio de Gabriel Knight (Disc 5).bin" BINARY
  TRACK 01 MODE1/2352
    INDEX 01 00:00:00

Write Offset: 633

The Beast Within: Um Mistério de Gabriel Knight (Disc 6)

Title: The Beast Within: Um Mistério de Gabriel Knight (Disc 6)
Disc Number / Letter: 6
Disc Title:
System: IBM PC Compatible
Media Type: CD-ROM
Category: Games
Region: Brazil
Languages: English / Brazilian Portuguese
Disc Serial:
Ringcode Information:
    Mastering Code (laser branded/etched): SONOPRESS    SORO056    3927/96
    Mastering SID Code: IFPI L029
    Label-Side Mould SID Code:
    Data-Side Mould SID Code:
    Additional Mould:
    Toolstamp or Mastering Code (engraved/stamped):
Barcode:
ISBN:
Error Count: 0
Comments: A Fera Interior: Um Mistério de Gabriel Knight (Disc 6)
Contents:
Version: 1.0
Edition/Release: Original
Primary Volume Descriptor (PVD):

0320 : 00 00 00 00 00 00 00 00  00 00 00 00 00 31 39 39   .............199
0330 : 34 30 31 31 32 31 32 30  30 30 30 30 30 E0 31 39   4011212000000.19
0340 : 39 34 30 31 31 32 31 32  30 30 30 30 30 30 E0 30   94011212000000.0
0350 : 30 30 30 30 30 30 30 30  30 30 30 30 30 30 30 00   000000000000000.
0360 : 31 39 39 34 30 31 31 32  31 32 30 30 30 30 30 30   1994011212000000
0370 : E0 01 00 00 00 00 00 00  00 00 00 00 00 00 00 00   ................

Copy Protection: None found

DAT:

<rom name="The Beast Within - Um Mistério de Gabriel Knight (Disc 6).bin" size="714838656" crc="8e814a8f" md5="2bbf94d875aed18db3834571c2a09158" sha1="e35bd36bb9d5203e2d0c351cebaf101907cbddcf" />

Cuesheet:

FILE "The Beast Within - Um Mist�rio de Gabriel Knight (Disc 6).bin" BINARY
  TRACK 01 MODE1/2352
    INDEX 01 00:00:00

Write Offset: 743

Additional data files for each CD attached and in the link below (including CDs pictures):

The Beast Within: Um Mistério de Gabriel Knight (Disc 1)
https://mega.nz/#!9YwDxCoI!b4XoEmnN0E-B … QI3ArE0hSQ

The Beast Within: Um Mistério de Gabriel Knight (Disc 2)
https://mega.nz/#!UBp1VAhS!dqKEeKdo8vY- … UtWMa4U7nw

The Beast Within: Um Mistério de Gabriel Knight (Disc 3)
https://mega.nz/#!IYpj1K6Z!HZf23CIBgU20 … pCLvbpUwNo

The Beast Within: Um Mistério de Gabriel Knight (Disc 4)
https://mega.nz/#!5dhzXC4Q!UonaBS1xMhXv … 2nF-TNuV5g

The Beast Within: Um Mistério de Gabriel Knight (Disc 5)
https://mega.nz/#!BVw3TajR!01T_JnWoVvTK … X8ePGVhLEM

The Beast Within: Um Mistério de Gabriel Knight (Disc 6)
https://mega.nz/#!1MxF3CiZ!VThmPQ3y2l06 … 2E4dhHeO8c

Post's attachments

The Beast Within - Um Mistério de Gabriel Knight.7z 55.44 kb, file has never been downloaded. 

You don't have the permssions to download the attachments of this post.