1 (edited by Agret 2019-04-12 11:37:07)

From redump missing list
4408 Ecco the Dolphin (Australia) -- "Made in Australia" CD, ringcode is "MK-4408P-00135   #04"

Seems someone else also bought it and dumped while I was waiting for my Plextor to arrive, such is life. Was only about $30 I think thankfully not one of the crazy expensive games.

Logs here -  https://drive.google.com/open?id=1TGILG … 0P_YLlVBPD

Verifying - http://redump.org/disc/60798/


Title: Ecco The Dolphin
Disc Number / Letter: (OPTIONAL)
Disc Title: (OPTIONAL)
System: Sega CD / Mega CD
Media Type: CD-ROM
Category: Games
Region: PAL
Languages: English
Disc Serial: 4408
Ringcode Information:
    Mastering Ring: MK-4408P-00135   #04
    Mastering SID Code: (REQUIRED, IF EXISTS)
    Mould SID Code: (REQUIRED, IF EXISTS)
    Additional Mould: (REQUIRED, IF EXISTS)
    Toolstamp or Mastering Code: (REQUIRED, IF EXISTS)
Barcode: (OPTIONAL)
Error Count: 0
Comments: Sega ID: 670-4098-50
Contents: (OPTIONAL)
Version: (REQUIRED, IF EXISTS)
Edition/Release: Original (VERIFY THIS)
Primary Volume Descriptor (PVD):

0320 : 20 20 20 20 20 20 20 20  20 20 20 20 20 31 39 39                199
0330 : 33 30 38 32 34 31 34 35  32 32 30 30 30 00 31 39   3082414522000.19
0340 : 39 33 30 38 32 34 31 34  35 32 32 30 30 30 00 30   93082414522000.0
0350 : 30 30 30 30 30 30 30 30  30 30 30 30 30 30 30 00   000000000000000.
0360 : 30 30 30 30 30 30 30 30  30 30 30 30 30 30 30 30   0000000000000000
0370 : 00 01 00 00 00 00 00 00  00 00 00 00 00 00 00 00   ................

Cuesheet:

CATALOG 0000000000000
FILE "Ecco_The_Dolphin_AU (Track 01).bin" BINARY
  TRACK 01 MODE1/2352
    INDEX 01 00:00:00
FILE "Ecco_The_Dolphin_AU (Track 02).bin" BINARY
  TRACK 02 AUDIO
    INDEX 00 00:00:00
    INDEX 01 00:01:74
FILE "Ecco_The_Dolphin_AU (Track 03).bin" BINARY
  TRACK 03 AUDIO
    INDEX 01 00:00:00
FILE "Ecco_The_Dolphin_AU (Track 04).bin" BINARY
  TRACK 04 AUDIO
    INDEX 01 00:00:00
FILE "Ecco_The_Dolphin_AU (Track 05).bin" BINARY
  TRACK 05 AUDIO
    INDEX 01 00:00:00
FILE "Ecco_The_Dolphin_AU (Track 06).bin" BINARY
  TRACK 06 AUDIO
    INDEX 01 00:00:00
FILE "Ecco_The_Dolphin_AU (Track 07).bin" BINARY
  TRACK 07 AUDIO
    INDEX 01 00:00:00
FILE "Ecco_The_Dolphin_AU (Track 08).bin" BINARY
  TRACK 08 AUDIO
    INDEX 01 00:00:00
FILE "Ecco_The_Dolphin_AU (Track 09).bin" BINARY
  TRACK 09 AUDIO
    INDEX 01 00:00:00
FILE "Ecco_The_Dolphin_AU (Track 10).bin" BINARY
  TRACK 10 AUDIO
    INDEX 01 00:00:00
FILE "Ecco_The_Dolphin_AU (Track 11).bin" BINARY
  TRACK 11 AUDIO
    INDEX 01 00:00:00
FILE "Ecco_The_Dolphin_AU (Track 12).bin" BINARY
  TRACK 12 AUDIO
    INDEX 01 00:00:00
FILE "Ecco_The_Dolphin_AU (Track 13).bin" BINARY
  TRACK 13 AUDIO
    INDEX 01 00:00:00
FILE "Ecco_The_Dolphin_AU (Track 14).bin" BINARY
  TRACK 14 AUDIO
    INDEX 01 00:00:00
FILE "Ecco_The_Dolphin_AU (Track 15).bin" BINARY
  TRACK 15 AUDIO
    INDEX 01 00:00:00
FILE "Ecco_The_Dolphin_AU (Track 16).bin" BINARY
  TRACK 16 AUDIO
    INDEX 01 00:00:00

Write Offset: 222

DAT:

<rom name="Ecco_The_Dolphin_AU (Track 01).bin" size="59618496" crc="881d6c0d" md5="002303cea6246e0ecab8b7f9e9b42aa1" sha1="5dbb8388380d785049aab7d7b60fc867348ff623" />
<rom name="Ecco_The_Dolphin_AU (Track 02).bin" size="48771072" crc="f823da52" md5="3eda67b946bb8293f627f88944c9da75" sha1="072cf064dda3304433d084b26d1b228febc0f1ca" />
<rom name="Ecco_The_Dolphin_AU (Track 03).bin" size="42973392" crc="81953c5c" md5="471646754b4a68944345a0838ba50d99" sha1="92d62771bfb6fc5c5113436e8e130bf60e82f327" />
<rom name="Ecco_The_Dolphin_AU (Track 04).bin" size="37305072" crc="5a778da1" md5="e45dba3562478578906df2133e9992ed" sha1="44d16ec765fd4ba4d1dac70e3c4e09994d2bb5e1" />
<rom name="Ecco_The_Dolphin_AU (Track 05).bin" size="60834480" crc="35b5fb22" md5="f47628c16f8066915167576f923a1dc8" sha1="55c556c8d00934672a431e202552506905f9c948" />
<rom name="Ecco_The_Dolphin_AU (Track 06).bin" size="39506544" crc="bc4802b5" md5="a82be6ea3925928fd4a40fda4b25c66d" sha1="ac552f59fb0c54790d91aeb6719a418d96e091d8" />
<rom name="Ecco_The_Dolphin_AU (Track 07).bin" size="59554992" crc="76708394" md5="66ac722c37a0dbfd53949a432a15c89a" sha1="ab472d323dbbf8ae07d0d92ac9f0bb59a3c2405b" />
<rom name="Ecco_The_Dolphin_AU (Track 08).bin" size="36987552" crc="388947a4" md5="e85651c94a883a22e541cc6348bf9cee" sha1="f7b2a409209769ee22e99fda190768dfa4735be1" />
<rom name="Ecco_The_Dolphin_AU (Track 09).bin" size="10468752" crc="9fdde0e8" md5="cfde9598b556a134f04ae33765cb207c" sha1="f9b90c1804621dba81e271e231c610d61d6a1d37" />
<rom name="Ecco_The_Dolphin_AU (Track 10).bin" size="20389488" crc="43ef3a30" md5="f4fc015419338bae9850950ba36eef68" sha1="c1303df1630058716471083b870d7320038103d4" />
<rom name="Ecco_The_Dolphin_AU (Track 11).bin" size="36126720" crc="6c8104dc" md5="ac77c4981369c7acf2e0f9e238dd2068" sha1="bd67af7d9ffabc10460087d824bf8d226476fc3c" />
<rom name="Ecco_The_Dolphin_AU (Track 12).bin" size="10461696" crc="e29da8df" md5="612dc091cc4e50cbc44027bc78286982" sha1="e87f02b8231e77077e6e5f217bc44aaf31dff54a" />
<rom name="Ecco_The_Dolphin_AU (Track 13).bin" size="37199232" crc="eb831c18" md5="4dedabb1c92a627f6aed0a1640d3d050" sha1="ba71d8cfa3a5c1edd11cce1d032e5e5c192764fb" />
<rom name="Ecco_The_Dolphin_AU (Track 14).bin" size="37126320" crc="e8fb946c" md5="800ee1a6a9355a18ee8f38240adef11a" sha1="e36ed29670ac24f51f53c162b03ff8eca8cf4495" />
<rom name="Ecco_The_Dolphin_AU (Track 15).bin" size="58670640" crc="76bee2e9" md5="e3baef97d29ab296f1580dca875459e7" sha1="e9115946bc82d61085742231b89585bdf3cad645" />
<rom name="Ecco_The_Dolphin_AU (Track 16).bin" size="40002816" crc="6bfcc388" md5="e74e87bdfaa5330a8413de06926d7903" sha1="bc0020eaed50e09c99bdf5948f81ad20c42177ee" />