1 (edited by Askavenger 2019-04-14 17:36:21)

Edit 4/14/2019 : Re-dumped Disc 1 and got results which verify http://redump.org/disc/38957/

Disc 1 Matches the following http://redump.org/disc/38957/
Disc 2 Matches the following  http://redump.org/disc/38958/
Disc 3 Matches the following  http://redump.org/disc/38959/
Disc 4 Matches the following  http://redump.org/disc/38960/


Output Files:

Disc 1
https://drive.google.com/open?id=15BKq9 … N2cLo1Ev5H

Disc 2
https://drive.google.com/open?id=1WRiVx … ee5qx8fqnM

Disc 3
https://drive.google.com/open?id=1KfvL5 … kmgbxe2vsV

Disc 4
https://drive.google.com/open?id=1Ef7sg … sQEGqOGo2P

Pics of CD
https://drive.google.com/open?id=1lZ_pt … 4-Sd1kQ45z

https://drive.google.com/open?id=1n4Wiu … J5EtEWQoRz

https://drive.google.com/open?id=1EjAHR … eRK022jaSH

https://drive.google.com/open?id=1ncDaZ … BxyTVhAMlx


Title: Fable: The Lost Chapters
Disc Number / Letter: 1
Disc Title: (OPTIONAL)
System: IBM PC Compatible
Media Type: CD-ROM
Category: Games
Region: USA
Languages: English
Disc Serial: X11-35544
Ringcode Information:
    Mastering Code (laser branded/etched): E    X11-35545 R1N
    Mastering SID Code: IFPI L250
    Data-Side Mould SID Code: IFPI 4153
    Label-Side Mould SID Code:
    Additional Mould:
    Toolstamp or Mastering Code (engraved/stamped): 01
Barcode:
ISBN:
Error Count: 10
Comments:
Contents:
Version:  1.00.000
Edition/Release: Original
Primary Volume Descriptor (PVD):

0320 : 20 20 20 20 20 20 20 20  20 20 20 20 20 32 30 30                200
0330 : 35 30 37 31 38 31 30 30  31 30 30 30 30 E0 32 30   5071810010000.20
0340 : 30 35 30 37 31 38 31 30  30 31 30 30 30 30 E0 30   05071810010000.0
0350 : 30 30 30 30 30 30 30 30  30 30 30 30 30 30 30 00   000000000000000.
0360 : 30 30 30 30 30 30 30 30  30 30 30 30 30 30 30 30   0000000000000000
0370 : 00 01 00 00 00 00 00 00  00 00 00 00 00 00 00 00   ................

Copy Protection: F:\00001.tmp: SmartE
F:\00002.tmp: SmartE
F:\Fable - The Lost Chapters\Fable.exe: SmartE

DAT:

<rom name="Fable Disk 1.bin" size="643568352" crc="5eb1513d" md5="6045de82732453573dd0f851582afb8b" sha1="b45e38eb7254b7565952d63e285edc18ae77df53" />

Cuesheet:

FILE "Fable Disk 1.bin" BINARY
  TRACK 01 MODE1/2352
    INDEX 01 00:00:00

Write Offset: 0

--------------------------------------------------------------------------------------------------------------------------------
Title: Fable: The Lost Chapters
Disc Number / Letter: 2
Disc Title:
System: IBM PC Compatible
Media Type: CD-ROM
Category: Games
Region: USA
Languages: English
Disc Serial: X11-35547
Ringcode Information:
    Mastering Code (laser branded/etched): X11-35548 R1R
    Mastering SID Code: IFPI L241
    Data-Side Mould SID Code: IFPI 4154
    Label-Side Mould SID Code:
    Additional Mould:
    Toolstamp or Mastering Code (engraved/stamped): 12
Barcode:
ISBN:
Error Count: 0
Comments:
Contents:
Version: 1.00.000
Edition/Release: Original
Primary Volume Descriptor (PVD):

0320 : 20 20 20 20 20 20 20 20  20 20 20 20 20 32 30 30                200
0330 : 35 30 37 31 38 32 33 30  34 35 39 31 32 E4 32 30   5071823045912.20
0340 : 30 35 30 37 31 38 32 33  30 34 35 39 31 32 E4 32   05071823045912.2
0350 : 31 30 35 30 37 31 38 32  33 30 34 35 39 31 32 E4   105071823045912.
0360 : 32 30 30 35 30 37 31 38  32 33 30 34 35 39 31 32   2005071823045912
0370 : E4 01 00 00 00 00 00 00  00 00 00 00 00 00 00 00   ................

Copy Protection: None found

DAT:

<rom name="Fable Disk 2.bin" size="742437024" crc="f1e1148e" md5="f5376c67bf84c1f929ba0a9d9f0838d5" sha1="f816f3c97281a47733ba3e44b31d925ca763b07d" />

Cuesheet:

FILE "Fable Disk 2.bin" BINARY
  TRACK 01 MODE1/2352
    INDEX 01 00:00:00

Write Offset: 0

------------------------------------------------------------------------------------------------------------------------------

Title: Fable: The Lost Chapters
Disc Number / Letter: 3
Disc Title:
System: IBM PC Compatible
Media Type: CD-ROM
Category: Games
Region: USA
Languages: English
Disc Serial: X11-35550
Ringcode Information:
    Mastering Code (laser branded/etched): X11-35551 R2R
    Mastering SID Code: IFPI L241
    Label-Side Mould SID Code:
    Data-Side Mould SID Code: IFPI 4121
    Additional Mould:
    Toolstamp or Mastering Code (engraved/stamped): 12
Barcode:
ISBN:
Error Count: 0
Comments:
Contents:
Version: 1.00.000
Edition/Release: Original
Primary Volume Descriptor (PVD):

0320 : 20 20 20 20 20 20 20 20  20 20 20 20 20 32 30 30                200
0330 : 35 30 37 31 38 32 33 30  36 30 36 33 31 E4 32 30   5071823060631.20
0340 : 30 35 30 37 31 38 32 33  30 36 30 36 33 31 E4 32   05071823060631.2
0350 : 31 30 35 30 37 31 38 32  33 30 36 30 36 33 31 E4   105071823060631.
0360 : 32 30 30 35 30 37 31 38  32 33 30 36 30 36 33 31   2005071823060631
0370 : E4 01 00 00 00 00 00 00  00 00 00 00 00 00 00 00   ................

Copy Protection: None found

DAT:

<rom name="Fable Disk 3.bin" size="557720352" crc="1820dc22" md5="5ae7268def451889123392ba7dd52109" sha1="495849565ff70d53389cd22b9142372edce4b0ae" />

Cuesheet:

FILE "Fable Disk 3.bin" BINARY
  TRACK 01 MODE1/2352
    INDEX 01 00:00:00

Write Offset: 0

------------------------------------------------------------------------------------------------------------------------------
Title: Fable: The Lost Chapters
Disc Number / Letter: 4
Disc Title:
System: IBM PC Compatible
Media Type: CD-ROM
Category: Games
Region: USA
Languages: English
Disc Serial: X11-35553
Ringcode Information:
    Mastering Code (laser branded/etched): X11-35554 R1R
    Mastering SID Code: IFPI L241
    Label-Side Mould SID Code:
    Data-Side Mould SID Code: IFPI 4158
    Additional Mould:
    Toolstamp or Mastering Code (engraved/stamped): 11
Barcode:
ISBN:
Error Count: 0
Comments:
Contents:
Version: 1.00.000
Edition/Release: Original
Primary Volume Descriptor (PVD):

0320 : 20 20 20 20 20 20 20 20  20 20 20 20 20 32 30 30                200
0330 : 35 30 37 31 38 32 33 31  36 35 35 34 32 E4 32 30   5071823165542.20
0340 : 30 35 30 37 31 38 32 33  31 36 35 35 34 32 E4 32   05071823165542.2
0350 : 31 30 35 30 37 31 38 32  33 31 36 35 35 34 32 E4   105071823165542.
0360 : 32 30 30 35 30 37 31 38  32 33 31 36 35 35 34 32   2005071823165542
0370 : E4 01 00 00 00 00 00 00  00 00 00 00 00 00 00 00   ................

Copy Protection: None found

DAT:

<rom name="Fable Disk 4.bin" size="698409936" crc="61cf3b45" md5="98b101bf033ff75dbcd6af8f32cefd6a" sha1="975fc880e07f5cbdf434e1951c05528b926ddb33" />

Cuesheet:

FILE "Fable Disk 4.bin" BINARY
  TRACK 01 MODE1/2352
    INDEX 01 00:00:00

Write Offset: 0