Name: Ben 10: Alien Force
BD: http://redump.org/disc/14351/
Logs: https://mega.nz/file/KAdw2JYB#SYI092248 … PrDtxZ5_6I

Common Disc Info:
    Title: Ben 10: Alien Force
    Foreign Title (Non-latin): (OPTIONAL)
    Disc Number / Letter: (OPTIONAL)
    Disc Title: (OPTIONAL)
    System: Sony PlayStation 2
    Media Type: DVD-ROM-5
    Category: Games
    Region: Europe
    Disc Serial: SLES-55440

    Ringcode Information:
        Data Side Mastering Code (laser branded/etched): Sony DADC <tab> A0101021219-A511 <tab> 16    
        Data Side Mastering SID Code: IFPI L556
        Data Side Toolstamp or Mastering Code (engraved/stamped): F04
        Data Side Mould SID Code: IFPI 941X
        Data Side Additional Mould: (REQUIRED, IF EXISTS)
        Label Side Mould SID Code: (REQUIRED, IF EXISTS)
    Barcode: (OPTIONAL)
    EXE/Build Date: 2008-10-03
    Comments:
    http://redump.org/disc/14351/
    Contents: (OPTIONAL)

Version and Editions:
    Version: 1.00
    Edition/Release: Original
    

Extras:
    Primary Volume Descriptor (PVD):

0320 : 20 20 20 20 20 20 20 20  20 20 20 20 20 32 30 30                200
0330 : 38 31 30 30 35 30 39 30  35 30 39 30 30 24 30 30   8100509050900$00
0340 : 30 30 30 30 30 30 30 30  30 30 30 30 30 30 00 30   00000000000000.0
0350 : 30 30 30 30 30 30 30 30  30 30 30 30 30 30 30 00   000000000000000.
0360 : 30 30 30 30 30 30 30 30  30 30 30 30 30 30 30 30   0000000000000000
0370 : 00 01 00 00 00 00 00 00  00 00 00 00 00 00 00 00   ................

Size & Checksum:
    Size: 2355003392
    CRC32: c9768718
    MD5: 91e637a2d2e2000a583851642e0136d8
    SHA1: b2fc0ebe73abf08983ea898b917e59faeb67d3c7

Name: Buffy the Vampire Slayer: Chaos Bleeds
BD: http://redump.org/disc/11190/
Logs: https://mega.nz/file/XJN0ybyD#fdrvle2eB … J4npvXKFz8

Common Disc Info:
    Title: Buffy the Vampire Slayer: Chaos Bleeds
    Foreign Title (Non-latin): (OPTIONAL)
    Disc Number / Letter: (OPTIONAL)
    Disc Title: (OPTIONAL)
    System: Sony PlayStation 2
    Media Type: DVD-ROM-5
    Category: Games
    Region: Europe
    Disc Serial: SLES-51890

    Ringcode Information:
        Data Side Mastering Code (laser branded/etched): Sony DADC <tab> A0100483102-A511 <tab> 17
        Data Side Mastering SID Code: IFPI L557
        Data Side Toolstamp or Mastering Code (engraved/stamped): A5
        Data Side Mould SID Code: IFPI 948W
        Data Side Additional Mould: (REQUIRED, IF EXISTS)
        Label Side Mould SID Code: (REQUIRED, IF EXISTS)
    Barcode: (OPTIONAL)
    EXE/Build Date: 2003-09-09
    Comments: 
    http://redump.org/disc/11190/
    Contents: (OPTIONAL)

Version and Editions:
    Version: 1.01
    Edition/Release: Original

Extras:
    Primary Volume Descriptor (PVD):

0320 : 20 20 20 20 20 20 20 20  20 20 20 20 20 32 30 30                200
0330 : 33 30 37 30 34 30 33 33  37 35 38 30 30 24 30 30   3070403375800$00
0340 : 30 30 30 30 30 30 30 30  30 30 30 30 30 30 00 30   00000000000000.0
0350 : 30 30 30 30 30 30 30 30  30 30 30 30 30 30 30 00   000000000000000.
0360 : 30 30 30 30 30 30 30 30  30 30 30 30 30 30 30 30   0000000000000000
0370 : 00 01 00 00 00 00 00 00  00 00 00 00 00 00 00 00   ................

Size & Checksum:
    Size: 3869179904
    CRC32: 9f65dbf3
    MD5: 73873994ca306cfa4fc09397d40abcf9
    SHA1: 2a0ef2972ade2d6460df8f3c3c6432da4934b231

Name: Burnout 3: Takedown
BD: http://redump.org/disc/1390/
Logs: https://mega.nz/file/2MlBUI4A#d2EFTHoAy … d02xPRPxN0

Common Disc Info:
    Title: Burnout 3: Takedown
    Foreign Title (Non-latin): (OPTIONAL)
    Disc Number / Letter: (OPTIONAL)
    Disc Title: (OPTIONAL)
    System: Sony PlayStation 2
    Media Type: DVD-ROM-5
    Category: Games
    Region: Europe
    Disc Serial: SLES-52584#

    Ringcode Information:
        Data Side Mastering Code (laser branded/etched): Sony DADC <tab> A0100555452-A511 <tab> 37
        Data Side Mastering SID Code: IFPI L557
        Data Side Toolstamp or Mastering Code (engraved/stamped): B9
        Data Side Mould SID Code: IFPI 942Z
        Data Side Additional Mould: (REQUIRED, IF EXISTS)
        Label Side Mould SID Code: (REQUIRED, IF EXISTS)
    Barcode: (OPTIONAL)
    EXE/Build Date: 2004-08-13
    Comments:
    EAX03404422D1 (Disc)
    http://redump.org/disc/1390/
    Contents: (OPTIONAL)

Version and Editions:
    Version: 1.01
    Edition/Release: Original
Extras:
    Primary Volume Descriptor (PVD):

0320 : 20 20 20 20 20 20 20 20  20 20 20 20 20 32 30 30                200
0330 : 34 30 38 31 38 31 30 30  34 33 37 30 30 24 30 30   4081810043700$00
0340 : 30 30 30 30 30 30 30 30  30 30 30 30 30 30 00 30   00000000000000.0
0350 : 30 30 30 30 30 30 30 30  30 30 30 30 30 30 30 00   000000000000000.
0360 : 30 30 30 30 30 30 30 30  30 30 30 30 30 30 30 30   0000000000000000
0370 : 00 01 00 00 00 00 00 00  00 00 00 00 00 00 00 00   ................

Size & Checksum:
    Size: 3631710208
    CRC32: 53706b0f
    MD5: 3e6e42e5aca3fc42917dcdb40f7f2c21
    SHA1: 154de8a9e7c052c91c3a032952de30e993d56220

Name: Canis Canem Edit
BD: http://redump.org/disc/1828/
Logs: https://mega.nz/file/eZNWDLoC#H5V1-LQu5 … nL9_pFSL5Y

Common Disc Info:
    Title: Canis Canem Edit
    Foreign Title (Non-latin): (OPTIONAL)
    Disc Number / Letter: (OPTIONAL)
    Disc Title: (OPTIONAL)
    System: Sony PlayStation 2
    Media Type: DVD-ROM-5
    Category: Games
    Region: Europe
    Disc Serial: SLES-53561

    Ringcode Information:
        Data Side Mastering Code (laser branded/etched): Sony DADC <tab> A0100746785-A511 <tab> 16    
        Data Side Mastering SID Code: IFPI L556
        Data Side Toolstamp or Mastering Code (engraved/stamped): A8
        Data Side Mould SID Code: IFPI L556
        Data Side Additional Mould: (REQUIRED, IF EXISTS)
        Label Side Mould SID Code: (REQUIRED, IF EXISTS)
    Barcode: (OPTIONAL)
    EXE/Build Date: 2006-09-23
    Comments:
    http://redump.org/disc/1828/
    Contents: (OPTIONAL)

Version and Editions:
    Version: 1.01
    Edition/Release: Platinum

Extras:
    Primary Volume Descriptor (PVD):

0320 : 20 20 20 20 20 20 20 20  20 20 20 20 20 32 30 30                200
0330 : 36 30 39 32 34 31 33 35  38 32 39 30 30 24 30 30   6092413582900$00
0340 : 30 30 30 30 30 30 30 30  30 30 30 30 30 30 00 30   00000000000000.0
0350 : 30 30 30 30 30 30 30 30  30 30 30 30 30 30 30 00   000000000000000.
0360 : 30 30 30 30 30 30 30 30  30 30 30 30 30 30 30 30   0000000000000000
0370 : 00 01 00 00 00 00 00 00  00 00 00 00 00 00 00 00   ................

Size & Checksum:
    Size: 4636835840
    CRC32: 8d221a03
    MD5: 9fcfb3b0fc7d1302c9ab21c82f26b77f
    SHA1: e01c02d09cb5e43a2f59caac27513b98de35a87a

Name: Crash of the Titans
BD: http://redump.org/disc/5983/
Logs: https://mega.nz/file/LF0lVQQT#g-BOBgfBb … 0VvozgI57M

Common Disc Info:
    Title: Crash of the Titans
    Foreign Title (Non-latin): (OPTIONAL)
    Disc Number / Letter: (OPTIONAL)
    Disc Title: (OPTIONAL)
    System: Sony PlayStation 2
    Media Type: DVD-ROM-5
    Category: Games
    Region: Europe
    Disc Serial: SLES-54841

    Ringcode Information:
        Data Side Mastering Code (laser branded/etched): Sony DADC <tab> A0100859639-A511 <tab> 26
        Data Side Mastering SID Code: IFPI L556
        Data Side Toolstamp or Mastering Code (engraved/stamped): A1
        Data Side Mould SID Code: IFPI 945D
        Data Side Additional Mould: (REQUIRED, IF EXISTS)
        Label Side Mould SID Code: (REQUIRED, IF EXISTS)
    Barcode: (OPTIONAL)
    EXE/Build Date: 2007-08-08
    Comments: 
    http://redump.org/disc/5983/
    Contents: (OPTIONAL)

Version and Editions:
    Version: 1.01
    Edition/Release: Original

Extras:
    Primary Volume Descriptor (PVD):

0320 : 20 20 20 20 20 20 20 20  20 20 20 20 20 32 30 30                200
0330 : 37 30 38 30 39 31 32 35  36 30 33 30 30 24 30 30   7080912560300$00
0340 : 30 30 30 30 30 30 30 30  30 30 30 30 30 30 00 30   00000000000000.0
0350 : 30 30 30 30 30 30 30 30  30 30 30 30 30 30 30 00   000000000000000.
0360 : 30 30 30 30 30 30 30 30  30 30 30 30 30 30 30 30   0000000000000000
0370 : 00 01 00 00 00 00 00 00  00 00 00 00 00 00 00 00   ................

Size & Checksum:
    Size: 2479489024
    CRC32: 3706f648
    MD5: 16718401fe1085d69f57a97ae2d769ec
    SHA1: 7a238ff1a6c3de42d2f0a07bf745e5cf28eb1174

Name: Disney/Pixar Los Increíbles
BD: http://redump.org/disc/18795/
Logs: https://mega.nz/file/SdkREKwD#BsyMI-5B4 … Ka_0vTpWsU

Common Disc Info:
    Title: Disney/Pixar Los Increíbles
    Foreign Title (Non-latin): (OPTIONAL)
    Disc Number / Letter: (OPTIONAL)
    Disc Title: (OPTIONAL)
    System: Sony PlayStation 2
    Media Type: DVD-ROM-5
    Category: Games
    Region: Europe
    Disc Serial: SLES-52816

    Ringcode Information:
        Data Side Mastering Code (laser branded/etched): Sony DADC <tab> A0100566195-A511 <tab> 17
        Data Side Mastering SID Code: IFPI L557
        Data Side Toolstamp or Mastering Code (engraved/stamped): A5
        Data Side Mould SID Code: IFPI 941Y
        Data Side Additional Mould: (REQUIRED, IF EXISTS)
        Label Side Mould SID Code: (REQUIRED, IF EXISTS)
    Barcode: (OPTIONAL)
    EXE/Build Date: 2004-10-04
    Comments:
    http://redump.org/disc/18795/
    Contents: (OPTIONAL)

Version and Editions:
    Version: 1.01
    Edition/Release: Original

Extras:
    Primary Volume Descriptor (PVD):

0320 : 20 20 20 20 20 20 20 20  20 20 20 20 20 32 30 30                200
0330 : 34 31 30 30 36 31 33 30  34 33 34 30 30 24 30 30   4100613043400$00
0340 : 30 30 30 30 30 30 30 30  30 30 30 30 30 30 00 30   00000000000000.0
0350 : 30 30 30 30 30 30 30 30  30 30 30 30 30 30 30 00   000000000000000.
0360 : 30 30 30 30 30 30 30 30  30 30 30 30 30 30 30 30   0000000000000000
0370 : 00 01 00 00 00 00 00 00  00 00 00 00 00 00 00 00   ................

Size & Checksum:
    Size: 1289617408
    CRC32: 4fbd7734
    MD5: 8fd181b56b3225b77c273390755add36
    SHA1: bacf59f9ef14976855059b2afcf2890632be6f34

Name: Doomsday Racers
BD: http://redump.org/disc/23602/
Logs: https://mega.nz/file/GYMChJTL#750cjGANj … wX4dG8_pL0

Common Disc Info:
    Title: Doomsday Racers
    Foreign Title (Non-latin): (OPTIONAL)
    Disc Number / Letter: (OPTIONAL)
    Disc Title: (OPTIONAL)
    System: Sony PlayStation 2
    Media Type: CD-ROM
    Category: Games
    Region: Europe
    Disc Serial: SLES-53142

    Ringcode Information:
        Data Side Mastering Code (laser branded/etched): Sony DADC <tab> A0100607032-0101 <tab> 18
        Data Side Mastering SID Code: IFPI L558
        Data Side Toolstamp or Mastering Code (engraved/stamped): A1
        Data Side Mould SID Code: IFPI 947S
        Data Side Additional Mould: (REQUIRED, IF EXISTS)
        Label Side Mould SID Code: (REQUIRED, IF EXISTS)
    Barcode: (OPTIONAL)
    EXE/Build Date: 2005-03-14
    Error Count: 0
    Comments:
    http://redump.org/disc/23602/
    Contents: (OPTIONAL)

Version and Editions:
    Version: 1.00
    Edition/Release: Original

Extras:
    Primary Volume Descriptor (PVD):

0320 : 20 20 20 20 20 20 20 20  20 20 20 20 20 32 30 30                200
0330 : 35 30 33 33 30 31 30 31  38 35 38 30 30 24 30 30   5033010185800$00
0340 : 30 30 30 30 30 30 30 30  30 30 30 30 30 30 00 30   00000000000000.0
0350 : 30 30 30 30 30 30 30 30  30 30 30 30 30 30 30 00   000000000000000.
0360 : 30 30 30 30 30 30 30 30  30 30 30 30 30 30 30 30   0000000000000000
0370 : 00 01 00 00 00 00 00 00  00 00 00 00 00 00 00 00   ................

Tracks and Write Offsets:
    DAT:

<rom name="PS2 - Doomsday Racers.bin" size="159752544" crc="9d6570fe" md5="00882fff28c2515ebb9c342a12cebfa2" sha1="7f433260c07bdfa2b44702be58290f1f7c87dc3e" />

    Cuesheet:

FILE "PS2 - Doomsday Racers.bin" BINARY
  TRACK 01 MODE2/2352
    INDEX 01 00:00:00

    Write Offset: -12

Name: DVD Player Version 2.10
BD: http://redump.org/disc/12425/
Logs: https://mega.nz/file/KIdkDbhS#aKTwukMAW … K4sn97k1hk

Common Disc Info:
    Title: DVD Player Version 2.10
    Foreign Title (Non-latin): (OPTIONAL)
    Disc Number / Letter: (OPTIONAL)
    Disc Title: (OPTIONAL)
    System: Sony PlayStation 2
    Media Type: CD-ROM
    Category: Applications
    Region: Europe
    Languages: 
    Language Selection Via: Bios settings, Language selector, Options menu
    Disc Serial: PBPX-95208

    Ringcode Information:
        Data Side Mastering Code (laser branded/etched): PBPX-95208 <tab> 5
        Data Side Mastering SID Code: IFPI L274
        Data Side Toolstamp or Mastering Code (engraved/stamped): (REQUIRED, IF EXISTS)
        Data Side Mould SID Code: IFPI 457F
        Data Side Additional Mould: (REQUIRED, IF EXISTS)
        Label Side Mould SID Code: (REQUIRED, IF EXISTS)
    Barcode: (OPTIONAL)
    EXE/Build Date: 2001-06-03
    Error Count: 0
    Comments: 
    http://redump.org/disc/12425/
    Contents: (OPTIONAL)

Version and Editions:
    Version: 1.00
    Edition/Release: Original (VERIFY THIS)

Extras:
    Primary Volume Descriptor (PVD):

0320 : 20 20 20 20 20 20 20 20  20 20 20 20 20 32 30 30                200
0330 : 31 30 36 30 34 30 30 30  30 30 30 30 30 24 30 30   1060400000000$00
0340 : 30 30 30 30 30 30 30 30  30 30 30 30 30 30 00 30   00000000000000.0
0350 : 30 30 30 30 30 30 30 30  30 30 30 30 30 30 30 00   000000000000000.
0360 : 30 30 30 30 30 30 30 30  30 30 30 30 30 30 30 30   0000000000000000
0370 : 00 01 00 00 00 00 00 00  00 00 00 00 00 00 00 00   ................

Tracks and Write Offsets:
    DAT:

<rom name="PS2 - Player.bin" size="751993200" crc="5bc57f49" md5="a0ef7c86b160e0daa54e72e2d9271b9f" sha1="615b6ff66d9116ff717afd725b5ce547562f3ee3" />

    Cuesheet:

FILE "PS2 - Player.bin" BINARY
  TRACK 01 MODE2/2352
    INDEX 01 00:00:00

    Write Offset: -12

Name: FIFA 07
BD: http://redump.org/disc/17074/
Logs: https://mega.nz/file/6JFQyJTT#sAjnoMsSk … 2HTLRve88w

Common Disc Info:
    Title: FIFA 07
    Foreign Title (Non-latin): (OPTIONAL)
    Disc Number / Letter: (OPTIONAL)
    Disc Title: (OPTIONAL)
    System: Sony PlayStation 2
    Media Type: DVD-ROM-5
    Category: Games
    Region: Europe
    Disc Serial: SLES-54243

    Ringcode Information:
        Data Side Mastering Code (laser branded/etched): Sony DADC <tab> A0100740560-A511 <tab> 17
        Data Side Mastering SID Code: IFPI L557
        Data Side Toolstamp or Mastering Code (engraved/stamped): A9
        Data Side Mould SID Code: IFPI 949U
        Data Side Additional Mould: (REQUIRED, IF EXISTS)
        Label Side Mould SID Code: (REQUIRED, IF EXISTS)
    Barcode: (OPTIONAL)
    EXE/Build Date: 2006-09-06
    Comments:
    http://redump.org/disc/17074/
    Electronic Arts ID: EAS03405406D
    Contents: (OPTIONAL)

Version and Editions:
    Version: 1.03
    Edition/Release: Original

Extras:
    Primary Volume Descriptor (PVD):

0320 : 20 20 20 20 20 20 20 20  20 20 20 20 20 32 30 30                200
0330 : 36 30 39 30 36 31 32 35  36 32 31 30 30 24 30 30   6090612562100$00
0340 : 30 30 30 30 30 30 30 30  30 30 30 30 30 30 00 30   00000000000000.0
0350 : 30 30 30 30 30 30 30 30  30 30 30 30 30 30 30 00   000000000000000.
0360 : 30 30 30 30 30 30 30 30  30 30 30 30 30 30 30 30   0000000000000000
0370 : 00 01 00 00 00 00 00 00  00 00 00 00 00 00 00 00   ................

Size & Checksum:
    Size: 4698734592
    CRC32: ef9a5d59
    MD5: e1a8ec9ec33de09578189d7250b046f9
    SHA1: 0fbab0545459fc27d9fd0c05f6622bec0a44912c

Name: FIFA 09
BD: http://redump.org/disc/17121/
Logs: https://mega.nz/file/idlxFSRb#rpR5tYAw7 … M2PCyzDt7o

Common Disc Info:
    Title: FIFA 09
    Foreign Title (Non-latin): (OPTIONAL)
    Disc Number / Letter: (OPTIONAL)
    Disc Title: (OPTIONAL)
    System: Sony PlayStation 2
    Media Type: DVD-ROM-5
    Category: Games
    Region: Europe
    Disc Serial: SLES-55245

    Ringcode Information:
        Data Side Mastering Code (laser branded/etched): Sony DADC <tab> A0100999528-A511 <tab> 16
        Data Side Mastering SID Code: IFPI L556
        Data Side Toolstamp or Mastering Code (engraved/stamped): A05
        Data Side Mould SID Code: IFPI 942Y
        Data Side Additional Mould: (REQUIRED, IF EXISTS)
        Label Side Mould SID Code: (REQUIRED, IF EXISTS)
    Barcode: (OPTIONAL)
    EXE/Build Date: 2008-09-05
    Comments:
    http://redump.org/disc/17121/
    Electronic Arts ID: EAX03406316D (Disc)
    Contents: (OPTIONAL)

Version and Editions:
    Version: 1.00
    Edition/Release: Original

Extras:
    Primary Volume Descriptor (PVD):

0320 : 20 20 20 20 20 20 20 20  20 20 20 20 20 32 30 30                200
0330 : 38 30 39 30 35 31 37 32  32 32 38 30 30 24 30 30   8090517222800$00
0340 : 30 30 30 30 30 30 30 30  30 30 30 30 30 30 00 30   00000000000000.0
0350 : 30 30 30 30 30 30 30 30  30 30 30 30 30 30 30 00   000000000000000.
0360 : 30 30 30 30 30 30 30 30  30 30 30 30 30 30 30 30   0000000000000000
0370 : 00 01 00 00 00 00 00 00  00 00 00 00 00 00 00 00   ................

Size & Checksum:
    Size: 4698734592
    CRC32: ed022c9e
    MD5: 3715ed75cfbb766b9aa971631794267e
    SHA1: acff756c93430ddc2f2346c6e728bd97bfc91cad

Name: FIFA Football 2005
BD: http://redump.org/disc/16595/
Logs: https://mega.nz/file/nZ1lUSQQ#FCksRWn5L … amgVdvxYDI

Common Disc Info:
    Title: FIFA Football 2005
    Foreign Title (Non-latin): (OPTIONAL)
    Disc Number / Letter: (OPTIONAL)
    Disc Title: (OPTIONAL)
    System: Sony PlayStation 2
    Media Type: DVD-ROM-5
    Category: Games
    Region: Europe
    Disc Serial: SLES-52561

    Ringcode Information:
        Data Side Mastering Code (laser branded/etched): Sony DADC <tab> A0100558750-A511 <tab> 67
        Data Side Mastering SID Code: IFPI L557
        Data Side Toolstamp or Mastering Code (engraved/stamped): A1
        Data Side Mould SID Code: IFPI 949W
        Data Side Additional Mould: (REQUIRED, IF EXISTS)
        Label Side Mould SID Code: (REQUIRED, IF EXISTS)
    Barcode: (OPTIONAL)
    EXE/Build Date: 2004-09-06
    Comments: 
    Another serial on DVD: EAY03404381D
    http://redump.org/disc/16595/
    Contents: (OPTIONAL)

Version and Editions:
    Version: 1.00
    Edition/Release: Original

Extras:
    Primary Volume Descriptor (PVD):

0320 : 20 20 20 20 20 20 20 20  20 20 20 20 20 32 30 30                200
0330 : 34 30 39 30 36 32 30 35  39 34 35 30 30 24 30 30   4090620594500$00
0340 : 30 30 30 30 30 30 30 30  30 30 30 30 30 30 00 30   00000000000000.0
0350 : 30 30 30 30 30 30 30 30  30 30 30 30 30 30 30 00   000000000000000.
0360 : 30 30 30 30 30 30 30 30  30 30 30 30 30 30 30 30   0000000000000000
0370 : 00 01 00 00 00 00 00 00  00 00 00 00 00 00 00 00   ................

Size & Checksum:
    Size: 4698734592
    CRC32: 80cae351
    MD5: 712e30139d39e8493228d26bd63e59fd
    SHA1: 238ebbbc3914b1088590789b279c1fdcd3fa95ab

Name: Home Alone
BD: http://redump.org/disc/64060/
Logs: https://mega.nz/file/7AVyjTjK#WPJnIoQ7z … gvatDYrmK8

Common Disc Info:
    Title: Home Alone
    Foreign Title (Non-latin): (OPTIONAL)
    Disc Number / Letter: (OPTIONAL)
    Disc Title: (OPTIONAL)
    System: Sony PlayStation 2
    Media Type: CD-ROM
    Category: Games
    Region: Europe
    Disc Serial: SLES-54532

    Ringcode Information:
        Data Side Mastering Code (laser branded/etched): Sony DADC <tab> A0100761447-0101 <tab> 28
        Data Side Mastering SID Code: IFPI L558
        Data Side Toolstamp or Mastering Code (engraved/stamped): A2
        Data Side Mould SID Code: IFPI 9475
        Data Side Additional Mould: (REQUIRED, IF EXISTS)
        Label Side Mould SID Code: (REQUIRED, IF EXISTS)
    Barcode: (OPTIONAL)
    EXE/Build Date: 2006-12-05
    Error Count: 0
    Comments:
    http://redump.org/disc/64060/
    Contents: (OPTIONAL)

Version and Editions:
    Version: 1.01
    Edition/Release: Original

Extras:
    Primary Volume Descriptor (PVD):

0320 : 20 20 20 20 20 20 20 20  20 20 20 20 20 32 30 30                200
0330 : 36 31 32 30 35 31 37 34  30 35 32 30 30 24 30 30   6120517405200$00
0340 : 30 30 30 30 30 30 30 30  30 30 30 30 30 30 00 30   00000000000000.0
0350 : 30 30 30 30 30 30 30 30  30 30 30 30 30 30 30 00   000000000000000.
0360 : 30 30 30 30 30 30 30 30  30 30 30 30 30 30 30 30   0000000000000000
0370 : 00 01 00 00 00 00 00 00  00 00 00 00 00 00 00 00   ................

Tracks and Write Offsets:
    DAT:

<rom name="PS2 - Home Alone.bin" size="65140992" crc="38e3ca3e" md5="8e52d67261ab0d4e99c6441ab9c3fed1" sha1="872bdf01becf095c1f6ebdef14c6e365620cc0bf" />

    Cuesheet:

FILE "PS2 - Home Alone.bin" BINARY
  TRACK 01 MODE2/2352
    INDEX 01 00:00:00

    Write Offset: -12
PX-W5524TA, PX-708UF, TS-H352C, BW-16D1HT