1 (edited by KailoKyra 2021-09-19 00:06:42)

https://mega.nz/folder/IcgSwKgI#X66W0m1DbpmcS-jvbO42PQ

cover : https://mega.nz/folder/xR5SmAJA#3yo8AE9Sok-Ps4mYnY5Ugw



Common Disc Info:
    Title: Pinball 3D-VCR
    Foreign Title (Non-latin): 
    Disc Number / Letter: 
    Disc Title: 
    System: IBM PC Compatible
    Media Type: CD-ROM
    Category: Games
    Matching IDs: 56187
    Region: UK
    Languages: 
    Disc Serial: 

    Ringcode Information:
        Data Side Mastering Code (laser branded/etched): ASR-12682-1    (33CD02-06EN/MEGA)
        Data Side Mastering SID Code: IFPI L891
        Data Side Toolstamp or Mastering Code (engraved/stamped): 
        Data Side Mould SID Code: 
        Data Side Additional Mould: 
        Label Side Mould SID Code: 
        Label Side Additional Mould: 
    Barcode: 7 02478 10014 4
    Error Count: 0
    Comments: 
    Contents: 

Version and Editions:
    Version: 
    Edition/Release: Megapak 6

Extras:
    Primary Volume Descriptor (PVD):

0320 : 20 20 20 20 20 20 20 20  20 20 20 20 20 31 39 39                199
0330 : 36 30 33 30 37 31 32 30  38 31 39 30 30 20 31 39   6030712081900 19
0340 : 39 36 30 33 30 37 31 32  30 38 31 39 30 30 20 00   96030712081900 .
0350 : 00 00 00 00 00 00 00 00  00 00 00 00 00 00 00 00   ................
0360 : 00 00 00 00 00 00 00 00  00 00 00 00 00 00 00 00   ................
0370 : 00 01 00 00 00 00 00 00  00 00 00 00 00 00 00 00   ................

Copy Protection:
    Copy Protection: None found

Tracks and Write Offsets:
    DAT:

<rom name="3D-VCR GAME (Track 1).bin" size="9871344" crc="29f2747d" md5="cf230c81e472497798898c1f54ab0c02" sha1="67443e2cc04642ca5b5e5458909122ab187f0071" />
<rom name="3D-VCR GAME (Track 2).bin" size="47597424" crc="d9bb94f8" md5="8a322d620b07457168221255ce443dc4" sha1="7a2c95d62e3eb04936fe189da48786f2eefb398f" />
<rom name="3D-VCR GAME (Track 3).bin" size="211113168" crc="2b22ff90" md5="4a7221ae127fc8eb3693b98b3acedb63" sha1="1d4f4f56d3ae83a31018003d324a6633120f2f8d" />
<rom name="3D-VCR GAME (Track 4).bin" size="7462896" crc="ff94a0a4" md5="397adf2aa3f0508fbc126af621a33f0c" sha1="01a83f661000234bebfbf55ece3a5bbbff25f01e" />

    Cuesheet:

FILE "3D-VCR GAME (Track 1).bin" BINARY
  TRACK 01 MODE1/2352
    INDEX 01 00:00:00
FILE "3D-VCR GAME (Track 2).bin" BINARY
  TRACK 02 AUDIO
    INDEX 00 00:00:00
    INDEX 01 00:02:00
FILE "3D-VCR GAME (Track 3).bin" BINARY
  TRACK 03 AUDIO
    INDEX 01 00:00:00
FILE "3D-VCR GAME (Track 4).bin" BINARY
  TRACK 04 AUDIO
    INDEX 01 00:00:00

    Write Offset: -22