1 (edited by KailoKyra 2021-09-19 00:07:54)

https://mega.nz/folder/oFxijQQQ#xPXzFZJzsfvF3uheuc9KXw

cover : https://mega.nz/folder/xR5SmAJA#3yo8AE9Sok-Ps4mYnY5Ugw


Common Disc Info:
    Title: Action Soccer
    Foreign Title (Non-latin): Action Soccer with Jonathan Pearce
    Disc Number / Letter: 
    Disc Title: 
    System: IBM PC Compatible
    Media Type: CD-ROM
    Category: Games
    Matching IDs: 55813
    Region: UK
    Languages: English
    Disc Serial: 

    Ringcode Information:
        Data Side Mastering Code (laser branded/etched): ASR-12791-1    (33CD07-06EN/MEGA)
        Data Side Mastering SID Code: IFPI L891
        Data Side Toolstamp or Mastering Code (engraved/stamped): 
        Data Side Mould SID Code: 
        Data Side Additional Mould: 
        Label Side Mould SID Code: 
        Label Side Additional Mould: 
    Barcode: 7 02478 10014 4
    Error Count: 0
    Comments: 
    Contents: 

Version and Editions:
    Version: 
    Edition/Release: Megapak 6

Extras:
    Primary Volume Descriptor (PVD):

0320 : 20 20 20 20 20 20 20 20  20 20 20 20 20 30 30 30                000
0330 : 30 30 30 30 30 30 30 30  30 30 30 30 30 00 30 30   0000000000000.00
0340 : 30 30 30 30 30 30 30 30  30 30 30 30 30 30 00 30   00000000000000.0
0350 : 30 30 30 30 30 30 30 30  30 30 30 30 30 30 30 00   000000000000000.
0360 : 30 30 30 30 30 30 30 30  30 30 30 30 30 30 30 30   0000000000000000
0370 : 00 01 00 00 00 00 00 00  00 00 00 00 00 00 00 00   ................

Copy Protection:
    Copy Protection: None found

Tracks and Write Offsets:
    DAT:

<rom name="track (Track 01).bin" size="25832016" crc="91e1ecfe" md5="482afdb428e460ca950f1acbd8bd6bd2" sha1="b4833cddb40a172b9d42390a3db3c2736b75ccc6" />
<rom name="track (Track 02).bin" size="28311024" crc="117c6710" md5="f2f8d2f30f4adcf4753b24f8211d199e" sha1="3f30a8748fbe8569950717234edd6c903fc013fa" />
<rom name="track (Track 03).bin" size="37509696" crc="3419b941" md5="9f992325a0f86968dcbc83c8564d8789" sha1="59f55c70c9e5a9ecfe9f12b1d76fd4b1ff99b235" />
<rom name="track (Track 04).bin" size="54394704" crc="e1c75087" md5="e9054960a3436ce9e176d387a8859165" sha1="6ab617d7a662ffcfb499909e1fa7ab188ba428aa" />
<rom name="track (Track 05).bin" size="30467808" crc="bb1265cc" md5="627a63f6d260e2963aeca5d3634d2167" sha1="605a27ce249a0969d55715bf7e5b2cf757668286" />
<rom name="track (Track 06).bin" size="24914736" crc="5b4eb90b" md5="4ba62ab7c08d38c8917c6e6928e82e58" sha1="e9fd3d3bf4789eb74bf1f1ad220a781c3ff12194" />
<rom name="track (Track 07).bin" size="48171312" crc="55d6d27d" md5="649577ca435e61621be53e870d311e23" sha1="67e1c67ca92796932bcd39e64ea84eb7d55b8b59" />
<rom name="track (Track 08).bin" size="57529920" crc="b6be2870" md5="a16567c651ddb59edd97a2bb278fa56f" sha1="474a1b83f5854c66af6fcd29059a1f71a95fbc36" />
<rom name="track (Track 09).bin" size="138278784" crc="6f76412d" md5="d922e2a69d9bb4be7174113092faec4e" sha1="f827861d78a571dcf03dbac7720ddd61d172b1f2" />
<rom name="track (Track 10).bin" size="6682032" crc="a2959edc" md5="76fe00eecf257425cb0514c158cf2af2" sha1="3d752c81c31177b7b8c4a11a2da156cb82801187" />
<rom name="track (Track 11).bin" size="5614224" crc="820a91d9" md5="03341a0ec3eb3f1b0b05a775463d57e3" sha1="6afe4c075d247d58dbe93272afc92c79a964b5f4" />
<rom name="track (Track 12).bin" size="1065456" crc="3c8d7696" md5="def94843ab436361a6f59ab1b90baf4c" sha1="907e177d34ead13d2276e719992e433a7a234f46" />
<rom name="track (Track 13).bin" size="18667824" crc="e3c1f301" md5="52291b24170959585a55338841dcd1e2" sha1="52521ec38e107366b5d791b9003621ac7560d741" />
<rom name="track (Track 14).bin" size="7780416" crc="5773f6e2" md5="fe268103fe110cf64ac7ca14b014fe0e" sha1="cd1f640d4e9a0e379d5acd0792849daae083b364" />
<rom name="track (Track 15).bin" size="5924688" crc="26d94ebe" md5="e7486e51bdf1497dcfbbaaf5feb997d5" sha1="3c4f621518b4a8b5e0c76e4a4903959612c6efe4" />
<rom name="track (Track 16).bin" size="6910176" crc="d60f4c2e" md5="68e2d58a30a85cbe7558718548ac889d" sha1="4a48d56f3b907c70f11a553da343be6a4f02bae6" />

    Cuesheet:

FILE "track (Track 01).bin" BINARY
  TRACK 01 MODE1/2352
    INDEX 01 00:00:00
FILE "track (Track 02).bin" BINARY
  TRACK 02 AUDIO
    INDEX 00 00:00:00
    INDEX 01 00:02:01
FILE "track (Track 03).bin" BINARY
  TRACK 03 AUDIO
    INDEX 00 00:00:00
    INDEX 01 00:01:73
FILE "track (Track 04).bin" BINARY
  TRACK 04 AUDIO
    INDEX 00 00:00:00
    INDEX 01 00:01:73
FILE "track (Track 05).bin" BINARY
  TRACK 05 AUDIO
    INDEX 00 00:00:00
    INDEX 01 00:01:73
FILE "track (Track 06).bin" BINARY
  TRACK 06 AUDIO
    INDEX 00 00:00:00
    INDEX 01 00:01:73
FILE "track (Track 07).bin" BINARY
  TRACK 07 AUDIO
    INDEX 00 00:00:00
    INDEX 01 00:01:73
FILE "track (Track 08).bin" BINARY
  TRACK 08 AUDIO
    INDEX 00 00:00:00
    INDEX 01 00:01:73
FILE "track (Track 09).bin" BINARY
  TRACK 09 AUDIO
    INDEX 00 00:00:00
    INDEX 01 00:01:73
FILE "track (Track 10).bin" BINARY
  TRACK 10 AUDIO
    INDEX 00 00:00:00
    INDEX 01 00:01:73
FILE "track (Track 11).bin" BINARY
  TRACK 11 AUDIO
    INDEX 00 00:00:00
    INDEX 01 00:01:73
FILE "track (Track 12).bin" BINARY
  TRACK 12 AUDIO
    INDEX 00 00:00:00
    INDEX 01 00:01:73
FILE "track (Track 13).bin" BINARY
  TRACK 13 AUDIO
    INDEX 00 00:00:00
    INDEX 01 00:01:73
FILE "track (Track 14).bin" BINARY
  TRACK 14 AUDIO
    INDEX 00 00:00:00
    INDEX 01 00:01:73
FILE "track (Track 15).bin" BINARY
  TRACK 15 AUDIO
    INDEX 00 00:00:00
    INDEX 01 00:01:73
FILE "track (Track 16).bin" BINARY
  TRACK 16 AUDIO
    INDEX 00 00:00:00
    INDEX 01 00:01:73

    Write Offset: -22