This a post for multiple discs, the files are all located here in individual folders: https://mega.nz/folder/ie423DxY#D8a1XUlA7lRtYlg3xEganw

Common Disc Info:
    Title: Amiga Format Disc 21: Christmas 1997
    Foreign Title (Non-latin): (OPTIONAL)
    Disc Number / Letter: (OPTIONAL)
    Disc Title: (OPTIONAL)
    System: Commodore Amiga
    Media Type: CD-ROM
    Category: Coverdiscs
    Region: UK
    Languages: English
    Disc Serial: AF/105/13/97

    Ringcode Information:
        Data Side Mastering Code (laser branded/etched): AF105/13/97    CD Systems UK    12617
        Data Side Mastering SID Code: (REQUIRED, IF EXISTS)
        Data Side Toolstamp or Mastering Code (engraved/stamped): (REQUIRED, IF EXISTS)
        Data Side Mould SID Code: (REQUIRED, IF EXISTS)
        Data Side Additional Mould: (REQUIRED, IF EXISTS)
        Label Side Mould SID Code: (REQUIRED, IF EXISTS)
        Label Side Additional Mould: 
    Barcode: (OPTIONAL)
    EXE/Build Date: (REQUIRED)
    Error Count: 0
    Comments: (OPTIONAL)
    Contents: (OPTIONAL)

Version and Editions:
    Version: (REQUIRED, IF EXISTS)
    Edition/Release: Original (VERIFY THIS)

Extras:
    Primary Volume Descriptor (PVD):

0320 : 00 00 00 00 00 00 00 00  00 00 00 00 00 31 39 39   .............199
0330 : 37 31 30 32 38 31 39 30  30 31 32 30 30 00 00 00   7102819001200...
0340 : 00 00 00 00 00 00 00 00  00 00 00 00 00 00 00 00   ................
0350 : 00 00 00 00 00 00 00 00  00 00 00 00 00 00 00 00   ................
0360 : 00 00 00 00 00 00 00 00  00 00 00 00 00 00 00 00   ................
0370 : 00 01 00 00 46 53 00 00  54 4D 00 14 00 00 08 00   ....FS..TM......

Tracks and Write Offsets:
    DAT:

<rom name="AFCD21.bin" size="780915744" crc="9a836357" md5="f3f20b4f19cf903056fdad8ad3969119" sha1="2db2eee92803307b1066e1fc6b0275665f77d948" />

    Cuesheet:

FILE "AFCD21.bin" BINARY
  TRACK 01 MODE1/2352
    INDEX 01 00:00:00

    Write Offset: -22

Common Disc Info:
    Title: Amiga Format Disc 22: January 1998
    Foreign Title (Non-latin): (OPTIONAL)
    Disc Number / Letter: (OPTIONAL)
    Disc Title: (OPTIONAL)
    System: Commodore Amiga
    Media Type: CD-ROM
    Category: Coverdiscs
    Region: UK
    Languages: English
    Disc Serial: AF/106/1/98

    Ringcode Information:
        Data Side Mastering Code (laser branded/etched): AF106/1/98    CD Systems UK    13084
        Data Side Mastering SID Code: (REQUIRED, IF EXISTS)
        Data Side Toolstamp or Mastering Code (engraved/stamped): (REQUIRED, IF EXISTS)
        Data Side Mould SID Code: (REQUIRED, IF EXISTS)
        Data Side Additional Mould: (REQUIRED, IF EXISTS)
        Label Side Mould SID Code: (REQUIRED, IF EXISTS)
        Label Side Additional Mould: 
    Barcode: (OPTIONAL)
    EXE/Build Date: (REQUIRED)
    Error Count: 0
    Comments: (OPTIONAL)
    Contents: (OPTIONAL)

Version and Editions:
    Version: (REQUIRED, IF EXISTS)
    Edition/Release: Original (VERIFY THIS)

Extras:
    Primary Volume Descriptor (PVD):

0320 : 00 00 00 00 00 00 00 00  00 00 00 00 00 31 39 39   .............199
0330 : 37 31 32 30 34 31 33 31  36 30 30 30 30 00 00 00   7120413160000...
0340 : 00 00 00 00 00 00 00 00  00 00 00 00 00 00 00 00   ................
0350 : 00 00 00 00 00 00 00 00  00 00 00 00 00 00 00 00   ................
0360 : 00 00 00 00 00 00 00 00  00 00 00 00 00 00 00 00   ................
0370 : 00 01 00 00 46 53 00 00  54 4D 00 14 00 00 08 00   ....FS..TM......

Tracks and Write Offsets:
    DAT:

<rom name="Amiga Format Disc 22 January 1998.bin" size="782035296" crc="d4251a7a" md5="a88c989b1d3b71b22b308f6dd8eee4d5" sha1="021ad0fb43f375e866cb95d1a79b9ad7fd6a7896" />

    Cuesheet:

FILE "Amiga Format Disc 22 January 1998.bin" BINARY
  TRACK 01 MODE1/2352
    INDEX 01 00:00:00

    Write Offset: -22

Common Disc Info:
    Title: Amiga Format Disc 24: March 1998
    Foreign Title (Non-latin): (OPTIONAL)
    Disc Number / Letter: (OPTIONAL)
    Disc Title: (OPTIONAL)
    System: Commodore Amiga
    Media Type: CD-ROM
    Category: Coverdiscs
    Region: UK
    Languages: English
    Disc Serial: AF/108/3/98

    Ringcode Information:
        Data Side Mastering Code (laser branded/etched): AF108/3/98    CD Systems UK    13984
        Data Side Mastering SID Code: IFPI 5Q03
        Data Side Toolstamp or Mastering Code (engraved/stamped): (REQUIRED, IF EXISTS)
        Data Side Mould SID Code: (REQUIRED, IF EXISTS)
        Data Side Additional Mould: (REQUIRED, IF EXISTS)
        Label Side Mould SID Code: (REQUIRED, IF EXISTS)
        Label Side Additional Mould: 
    Barcode: (OPTIONAL)
    EXE/Build Date: (REQUIRED)
    Error Count: 0
    Comments: (OPTIONAL)
    Contents: (OPTIONAL)

Version and Editions:
    Version: (REQUIRED, IF EXISTS)
    Edition/Release: Original (VERIFY THIS)

Extras:
    Primary Volume Descriptor (PVD):

0320 : 00 00 00 00 00 00 00 00  00 00 00 00 00 31 39 39   .............199
0330 : 38 30 31 32 36 31 37 32  32 30 37 30 30 00 00 00   8012617220700...
0340 : 00 00 00 00 00 00 00 00  00 00 00 00 00 00 00 00   ................
0350 : 00 00 00 00 00 00 00 00  00 00 00 00 00 00 00 00   ................
0360 : 00 00 00 00 00 00 00 00  00 00 00 00 00 00 00 00   ................
0370 : 00 01 00 00 46 53 00 00  54 4D 00 14 00 00 08 00   ....FS..TM......

Tracks and Write Offsets:
    DAT:

<rom name="AFCD24.bin" size="769729632" crc="01b0e323" md5="d4590cd069807421e23e7817c33b2cc3" sha1="9222722627c7718436bc89287dcad9cbb769ff75" />

    Cuesheet:

FILE "AFCD24.bin" BINARY
  TRACK 01 MODE1/2352
    INDEX 01 00:00:00

    Write Offset: -22

Common Disc Info:
    Title: Amiga Format Disc 25: April 1998
    Foreign Title (Non-latin): (OPTIONAL)
    Disc Number / Letter: (OPTIONAL)
    Disc Title: (OPTIONAL)
    System: Commodore Amiga
    Media Type: CD-ROM
    Category: Coverdiscs
    Region: UK
    Languages: English
    Disc Serial: AF/109/4/98

    Ringcode Information:
        Data Side Mastering Code (laser branded/etched): AF109/4/98/A    CD Systems UK    14363
        Data Side Mastering SID Code: (REQUIRED, IF EXISTS)
        Data Side Toolstamp or Mastering Code (engraved/stamped): (REQUIRED, IF EXISTS)
        Data Side Mould SID Code: (REQUIRED, IF EXISTS)
        Data Side Additional Mould: (REQUIRED, IF EXISTS)
        Label Side Mould SID Code: (REQUIRED, IF EXISTS)
        Label Side Additional Mould: 
    Barcode: (OPTIONAL)
    EXE/Build Date: (REQUIRED)
    Error Count: 0
    Comments: (OPTIONAL)
    Contents: (OPTIONAL)

Version and Editions:
    Version: (REQUIRED, IF EXISTS)
    Edition/Release: Original (VERIFY THIS)

Extras:
    Primary Volume Descriptor (PVD):

0320 : 00 00 00 00 00 00 00 00  00 00 00 00 00 31 39 39   .............199
0330 : 38 30 32 31 38 31 30 33  37 31 35 30 30 00 00 00   8021810371500...
0340 : 00 00 00 00 00 00 00 00  00 00 00 00 00 00 00 00   ................
0350 : 00 00 00 00 00 00 00 00  00 00 00 00 00 00 00 00   ................
0360 : 00 00 00 00 00 00 00 00  00 00 00 00 00 00 00 00   ................
0370 : 00 01 00 00 46 53 00 00  54 4D 00 14 00 00 08 00   ....FS..TM......

Tracks and Write Offsets:
    DAT:

<rom name="AFCD25.bin" size="774384240" crc="13433ce2" md5="c4266673b26f0a017914b256a9c4709d" sha1="fbb992460709abd0a66338247db0d23bf3c7090e" />

    Cuesheet:

FILE "AFCD25.bin" BINARY
  TRACK 01 MODE1/2352
    INDEX 01 00:00:00

    Write Offset: -22

Common Disc Info:
    Title: Amiga Format Disc 26: May 1998
    Foreign Title (Non-latin): (OPTIONAL)
    Disc Number / Letter: (OPTIONAL)
    Disc Title: (OPTIONAL)
    System: Commodore Amiga
    Media Type: CD-ROM
    Category: Coverdiscs
    Region: UK
    Languages: English
    Disc Serial: AF/110/5/98

    Ringcode Information:
        Data Side Mastering Code (laser branded/etched): AF110/MAY/98    CD Systems UK    14821
        Data Side Mastering SID Code: IFPI 5Q03
        Data Side Toolstamp or Mastering Code (engraved/stamped): (REQUIRED, IF EXISTS)
        Data Side Mould SID Code: (REQUIRED, IF EXISTS)
        Data Side Additional Mould: (REQUIRED, IF EXISTS)
        Label Side Mould SID Code: (REQUIRED, IF EXISTS)
        Label Side Additional Mould: 
    Barcode: (OPTIONAL)
    EXE/Build Date: (REQUIRED)
    Error Count: 0
    Comments: (OPTIONAL)
    Contents: (OPTIONAL)

Version and Editions:
    Version: (REQUIRED, IF EXISTS)
    Edition/Release: Original (VERIFY THIS)

Extras:
    Primary Volume Descriptor (PVD):

0320 : 00 00 00 00 00 00 00 00  00 00 00 00 00 31 39 39   .............199
0330 : 38 30 33 31 39 32 31 32  32 34 38 30 30 00 00 00   8031921224800...
0340 : 00 00 00 00 00 00 00 00  00 00 00 00 00 00 00 00   ................
0350 : 00 00 00 00 00 00 00 00  00 00 00 00 00 00 00 00   ................
0360 : 00 00 00 00 00 00 00 00  00 00 00 00 00 00 00 00   ................
0370 : 00 01 00 00 46 53 00 00  54 4D 00 14 00 00 08 00   ....FS..TM......

Tracks and Write Offsets:
    DAT:

<rom name="AFCD26.bin" size="773078880" crc="9a1f93c8" md5="751f5c2cef8ea933af46b788bbe3961e" sha1="85d212b21af3435e0c90d1337af52b3162677304" />

    Cuesheet:

FILE "AFCD26.bin" BINARY
  TRACK 01 MODE1/2352
    INDEX 01 00:00:00

    Write Offset: -22

Common Disc Info:
    Title: Amiga Format Disc 27: June 1998
    Foreign Title (Non-latin): (OPTIONAL)
    Disc Number / Letter: (OPTIONAL)
    Disc Title: (OPTIONAL)
    System: Commodore Amiga
    Media Type: CD-ROM
    Category: Coverdiscs
    Region: UK
    Languages: English
    Disc Serial: AF/111/6/98

    Ringcode Information:
        Data Side Mastering Code (laser branded/etched): AF111/6/98/A    CD Systems UK    15367
        Data Side Mastering SID Code: (REQUIRED, IF EXISTS)
        Data Side Toolstamp or Mastering Code (engraved/stamped): (REQUIRED, IF EXISTS)
        Data Side Mould SID Code: (REQUIRED, IF EXISTS)
        Data Side Additional Mould: (REQUIRED, IF EXISTS)
        Label Side Mould SID Code: (REQUIRED, IF EXISTS)
        Label Side Additional Mould: 
    Barcode: (OPTIONAL)
    EXE/Build Date: (REQUIRED)
    Error Count: 5
    Comments: (OPTIONAL)
    Contents: (OPTIONAL)

Version and Editions:
    Version: (REQUIRED, IF EXISTS)
    Edition/Release: Original (VERIFY THIS)

Extras:
    Primary Volume Descriptor (PVD):

0320 : 00 00 00 00 00 00 00 00  00 00 00 00 00 31 39 39   .............199
0330 : 38 30 34 31 37 31 37 33  38 31 34 30 30 00 00 00   8041717381400...
0340 : 00 00 00 00 00 00 00 00  00 00 00 00 00 00 00 00   ................
0350 : 00 00 00 00 00 00 00 00  00 00 00 00 00 00 00 00   ................
0360 : 00 00 00 00 00 00 00 00  00 00 00 00 00 00 00 00   ................
0370 : 00 01 00 00 46 53 00 00  54 4D 00 14 00 00 08 00   ....FS..TM......

Tracks and Write Offsets:
    DAT:

<rom name="AFCD27.bin" size="768149088" crc="0eb947d8" md5="51e0be4a6b49f4b844dc8d30aff4d68b" sha1="e18f14adab30c7c0df9f85957de016795e5b96d0" />

    Cuesheet:

FILE "AFCD27.bin" BINARY
  TRACK 01 MODE1/2352
    INDEX 01 00:00:00

    Write Offset: -22

Amiga Format Disc 27: June 1998 has 5 errors, could you try re-dumping it and see if you get the same results please?

Could you also try re-dumping Disc 45? It has a lot of errors that were reread.

PX-W4012TA | PX-716A | LG WH16NS40 (JB7) | TS-H352C
Wii | Wii U | SOHD-167T | Pioneer 209DBK | X360 HDDVD