http://redump.org/disc/35609/

Common Disc Info:
    Title: Tokimeki Memorial: Forever with You
    Foreign Title (Non-latin): ときめきメモリアル-foreverwithyou-
    Disc Number / Letter: (OPTIONAL)
    Disc Title: (OPTIONAL)
    System: Sega Saturn
    Media Type: CD-ROM
    Category: Games
    Region: Japan
    Languages: Japanese
    Disc Serial: T-9504G

    Ringcode Information:
        Data Side Mastering Code (laser branded/etched): T-9504GP-00892 2MB3 C 66
        Data Side Mastering SID Code: IFPI L223
        Data Side Toolstamp or Mastering Code (engraved/stamped): (REQUIRED, IF EXISTS)
        Data Side Mould SID Code: IFPI 3907
        Data Side Additional Mould: (REQUIRED, IF EXISTS)
        Label Side Mould SID Code: (REQUIRED, IF EXISTS)
        Label Side Additional Mould:
    Barcode: T4988602010503 (on cd pouch) T4988602026559 (On the special-ban binder case)
    Error Count: 0
    Comments: JASRAC ID: 962046
    Contents: (OPTIONAL)

Version and Editions:
    Version: (REQUIRED, IF EXISTS)
    Edition/Release: Special-ban

Extras:
    Primary Volume Descriptor (PVD):

0320 : 20 20 20 20 20 20 20 20  20 20 20 20 20 31 39 39                199
0330 : 36 30 36 30 35 30 30 30  30 30 30 30 30 00 31 39   6060500000000.19
0340 : 39 36 30 36 30 35 31 36  33 38 33 39 30 30 DC 30   96060516383900.0
0350 : 30 30 30 30 30 30 30 30  30 30 30 30 30 30 30 00   000000000000000.
0360 : 30 30 30 30 30 30 30 30  30 30 30 30 30 30 30 30   0000000000000000
0370 : 00 01 00 00 00 00 00 00  00 00 00 00 00 00 00 00   ................

    Header:

Tracks and Write Offsets:
    DAT:

<rom name="TOKIMEKI_MEMORIARU_FOREVER_WITH_ (Track 1).bin" size="239685264" crc="22e2ae16" md5="2f6943d792d80e780ab37273ec1a96ae" sha1="1cd7310334d324b14a64757f29f6e06c23501a60" />
<rom name="TOKIMEKI_MEMORIARU_FOREVER_WITH_ (Track 2).bin" size="358080240" crc="0550bb8f" md5="c52e5d8f522043ff91cc61aadfe91d97" sha1="574ad3542ad5b1c894f2f037af06f31e4d272add" />
<rom name="TOKIMEKI_MEMORIARU_FOREVER_WITH_ (Track 3).bin" size="43048656" crc="272270be" md5="f45e71c8ee15ed6813670dd10c8de434" sha1="584e4db70716d5d7c5b5ea0ccf4fb2a272a61285" />

    Cuesheet:

CATALOG 0000000000000
FILE "TOKIMEKI_MEMORIARU_FOREVER_WITH_ (Track 1).bin" BINARY
  TRACK 01 MODE1/2352
    INDEX 01 00:00:00
FILE "TOKIMEKI_MEMORIARU_FOREVER_WITH_ (Track 2).bin" BINARY
  TRACK 02 MODE2/2352
    INDEX 00 00:00:00
    INDEX 01 00:03:00
FILE "TOKIMEKI_MEMORIARU_FOREVER_WITH_ (Track 3).bin" BINARY
  TRACK 03 AUDIO
    INDEX 00 00:00:00
    INDEX 01 00:02:00

    Write Offset: 0

Logs here:

https://1drv.ms/u/s!AjKL64V7BuN9mxgdAYbqIt6MFZIs