1 (edited by armadylo 2021-04-08 01:18:23)

A late "Ecco: The Tides of Time" prerelease for the Mega-CD/Sega CD.
Released here, if more information is needed: https://hiddenpalace.org/Ecco:_The_Tide … rerelease)
Disc data: https://robodylo.com/files/Ecco_prerele … p_info.zip

Common Disc Info:
    Title: Ecco: The Tides of Time
    System: Sega CD / Mega CD
    Media Type: CD
    Category: Preproduction
    Region: USA
    Languages: English

    Ringcode Information:
        Mastering Code (laser branded/etched): 4HO2HAI
    EXE/Build Date: 1994-10
    Error Count: 0
    Comments: Written in marker on CD-R - "Ecco 2 #7 101"

Extras:
    Primary Volume Descriptor (PVD):

0320 : 20 20 20 20 20 20 20 20  20 20 20 20 20 31 39 39                199
0330 : 34 31 30 30 31 30 35 32  30 35 36 30 30 00 31 39   4100105205600.19
0340 : 39 34 31 30 30 31 30 35  32 30 35 37 30 30 00 30   94100105205700.0
0350 : 30 30 30 30 30 30 30 30  30 30 30 30 30 30 30 00   000000000000000.
0360 : 30 30 30 30 30 30 30 30  30 30 30 30 30 30 30 30   0000000000000000
0370 : 00 01 00 00 00 00 00 00  00 00 00 00 00 00 00 00   ................

    Header:

0100 : 53 45 47 41 20 47 45 4E  45 53 49 53 20 20 20 20   SEGA GENESIS    
0110 : 28 43 29 53 45 47 41 20  31 39 39 34 2E 4F 43 54   (C)SEGA 1994.OCT
0120 : 45 43 43 4F 20 54 48 45  20 54 49 44 45 53 20 4F   ECCO THE TIDES O
0130 : 46 20 54 49 4D 45 20 20  20 20 20 20 20 20 20 20   F TIME          
0140 : 20 20 20 20 20 20 20 20  20 20 20 20 20 20 20 20                   
0150 : 45 43 43 4F 20 54 48 45  20 54 49 44 45 53 20 4F   ECCO THE TIDES O
0160 : 46 20 54 49 4D 45 20 20  20 20 20 20 20 20 20 20   F TIME          
0170 : 20 20 20 20 20 20 20 20  20 20 20 20 20 20 20 20                   
0180 : 47 4D 20 4D 4B 2D 34 34  34 31 20 2D 30 30 20 20   GM MK-4441 -00  
0190 : 4A 20 20 20 20 20 20 20  20 20 20 20 20 20 20 20   J               
01A0 : 20 20 20 20 20 20 20 20  20 20 20 20 20 20 20 20                   
01B0 : 20 20 20 20 20 20 20 20  20 20 20 20 20 20 20 20                   
01C0 : 20 20 20 20 20 20 20 20  20 20 20 20 20 20 20 20                   
01D0 : 20 20 20 20 20 20 20 20  20 20 20 20 20 20 20 20                   
01E0 : 20 20 20 20 20 20 20 20  20 20 20 20 20 20 20 20                   
01F0 : 55 20 20 20 20 20 20 20  20 20 20 20 20 20 20 20   U               

Tracks and Write Offsets:
    DAT:

<rom name="MEGADRIVE_GAME_SPECIAL (Track 01).bin" size="150469200" crc="4720cff7" md5="68642f17622831c5049d956d45f17afe" sha1="56ea41499c7e70fa0a3333f5cb0fadb665a7cbc8" />
<rom name="MEGADRIVE_GAME_SPECIAL (Track 02).bin" size="50005872" crc="67abb8de" md5="eaeb06509535253c0e7cc8bb63e34f2d" sha1="e090be89b0d6e0c751922a945b46323561953b19" />
<rom name="MEGADRIVE_GAME_SPECIAL (Track 03).bin" size="48270096" crc="323e60fe" md5="5cd66922263f8c59030f3848a4ac5df3" sha1="b17729456a60fc763a9cbc838a486b9f0c558541" />
<rom name="MEGADRIVE_GAME_SPECIAL (Track 04).bin" size="40040448" crc="aa5b1bc1" md5="9d3f06430aeb6d19af40dada7a1a6a07" sha1="fc40ac8c5baadf51c293449d944f9d2286714add" />
<rom name="MEGADRIVE_GAME_SPECIAL (Track 05).bin" size="39391296" crc="839a7848" md5="173a4ed490153f19d0b9c0c08a354454" sha1="5996d6021531003970b111f1919aa65241f6dedc" />
<rom name="MEGADRIVE_GAME_SPECIAL (Track 06).bin" size="37062816" crc="6fa4f469" md5="39be9e2463f9b64ca9ada25acd3cbb67" sha1="c87077f7e4d4c794484d425b0bedb1bc5538e3ec" />
<rom name="MEGADRIVE_GAME_SPECIAL (Track 07).bin" size="36895824" crc="87d04948" md5="374ad26a2aaafac0fe6ceb7b5436c293" sha1="2c5779c1cfbb0dd219bb23a61198439cc530f618" />
<rom name="MEGADRIVE_GAME_SPECIAL (Track 08).bin" size="35402304" crc="a7cda756" md5="6d5b54acfcf12f490c057dd9fef3afb3" sha1="2294588cbbd7561329958c9875dca01d33883acf" />
<rom name="MEGADRIVE_GAME_SPECIAL (Track 09).bin" size="34633200" crc="5a5e16cb" md5="4a95c8f663699b13316ff10204bdefd7" sha1="6888693d72e7e322a45cf5da263f646460c3d54f" />
<rom name="MEGADRIVE_GAME_SPECIAL (Track 10).bin" size="29900976" crc="cb82e447" md5="45a0eef1f02871cf76f9a0bd733ae2c8" sha1="a6e6c04c49a0582dcddec66b53b161b7ead012e8" />
<rom name="MEGADRIVE_GAME_SPECIAL (Track 11).bin" size="29242416" crc="be7953d4" md5="7c733f37599c827d902206a9c3499b44" sha1="764623e9041e796ea36734fd1aa7a05ebf6a831f" />
<rom name="MEGADRIVE_GAME_SPECIAL (Track 12).bin" size="28560336" crc="0d8f33dd" md5="1756be4c95a45b484d620e00b6751da6" sha1="b973747ec612d7243609399f2833332f793b35f0" />
<rom name="MEGADRIVE_GAME_SPECIAL (Track 13).bin" size="23557632" crc="0974d1c3" md5="943e560edec234b87a33084f017c9afa" sha1="4a722c2d490892752737c7f55e0166ef125e81a3" />
<rom name="MEGADRIVE_GAME_SPECIAL (Track 14).bin" size="15243312" crc="2543f68b" md5="e1ed97303b8b1534e7b2451f6e148a9a" sha1="dc4f2361703a6eed9d5ab58729d554e3a09a65c3" />
<rom name="MEGADRIVE_GAME_SPECIAL (Track 15).bin" size="4085424" crc="db40c4fb" md5="8548e0fb77f5248d9536f8ac68004cda" sha1="e77a85829efd95a3052e5ab0a22b9adda351431d" />
<rom name="MEGADRIVE_GAME_SPECIAL (Track 16).bin" size="48775776" crc="a0249d09" md5="a04268b5a657e8a7c7a0a897a0f18e85" sha1="054d1acedf3b7ff3877e10222a0a476f01690fb2" />
<rom name="MEGADRIVE_GAME_SPECIAL (Track 17).bin" size="10816848" crc="8e7436b6" md5="60dca2f36d0775fc01bdcbf6ae6868b8" sha1="ffd4d610d80cfce54c90cf09200b50ec534056c3" />

    Cuesheet:

FILE "MEGADRIVE_GAME_SPECIAL (Track 01).bin" BINARY
  TRACK 01 MODE1/2352
    INDEX 01 00:00:00
FILE "MEGADRIVE_GAME_SPECIAL (Track 02).bin" BINARY
  TRACK 02 AUDIO
    INDEX 00 00:00:00
    INDEX 01 00:02:00
FILE "MEGADRIVE_GAME_SPECIAL (Track 03).bin" BINARY
  TRACK 03 AUDIO
    INDEX 00 00:00:00
    INDEX 01 00:02:00
FILE "MEGADRIVE_GAME_SPECIAL (Track 04).bin" BINARY
  TRACK 04 AUDIO
    INDEX 00 00:00:00
    INDEX 01 00:02:00
FILE "MEGADRIVE_GAME_SPECIAL (Track 05).bin" BINARY
  TRACK 05 AUDIO
    INDEX 00 00:00:00
    INDEX 01 00:02:00
FILE "MEGADRIVE_GAME_SPECIAL (Track 06).bin" BINARY
  TRACK 06 AUDIO
    INDEX 00 00:00:00
    INDEX 01 00:02:00
FILE "MEGADRIVE_GAME_SPECIAL (Track 07).bin" BINARY
  TRACK 07 AUDIO
    INDEX 00 00:00:00
    INDEX 01 00:02:00
FILE "MEGADRIVE_GAME_SPECIAL (Track 08).bin" BINARY
  TRACK 08 AUDIO
    INDEX 00 00:00:00
    INDEX 01 00:02:00
FILE "MEGADRIVE_GAME_SPECIAL (Track 09).bin" BINARY
  TRACK 09 AUDIO
    INDEX 00 00:00:00
    INDEX 01 00:02:00
FILE "MEGADRIVE_GAME_SPECIAL (Track 10).bin" BINARY
  TRACK 10 AUDIO
    INDEX 00 00:00:00
    INDEX 01 00:02:00
FILE "MEGADRIVE_GAME_SPECIAL (Track 11).bin" BINARY
  TRACK 11 AUDIO
    INDEX 00 00:00:00
    INDEX 01 00:02:00
FILE "MEGADRIVE_GAME_SPECIAL (Track 12).bin" BINARY
  TRACK 12 AUDIO
    INDEX 00 00:00:00
    INDEX 01 00:02:00
FILE "MEGADRIVE_GAME_SPECIAL (Track 13).bin" BINARY
  TRACK 13 AUDIO
    INDEX 00 00:00:00
    INDEX 01 00:02:00
FILE "MEGADRIVE_GAME_SPECIAL (Track 14).bin" BINARY
  TRACK 14 AUDIO
    INDEX 00 00:00:00
    INDEX 01 00:02:00
FILE "MEGADRIVE_GAME_SPECIAL (Track 15).bin" BINARY
  TRACK 15 AUDIO
    INDEX 00 00:00:00
    INDEX 01 00:02:00
FILE "MEGADRIVE_GAME_SPECIAL (Track 16).bin" BINARY
  TRACK 16 AUDIO
    INDEX 00 00:00:00
    INDEX 01 00:02:00
FILE "MEGADRIVE_GAME_SPECIAL (Track 17).bin" BINARY
  TRACK 17 AUDIO
    INDEX 00 00:00:00
    INDEX 01 00:02:00

    Write Offset: 515