http://redump.org/disc/63822/

Logs: https://mega.nz/file/enBGhbxZ#QU4lHX4tL … szirEzpfZ4

Common Disc Info:
    Title: Tielu Daheng II
    Foreign Title (Non-latin): 铁路大亨Ⅱ
    Disc Number / Letter: (OPTIONAL)
    Disc Title: (OPTIONAL)
    System: IBM PC Compatible
    Media Type: CD-ROM
    Category: Games
    Region: China
    Languages: Chinese
    Disc Serial: (REQUIRED, IF EXISTS)

    Ringcode Information:
        Mastering Code (laser branded/etched): ISBN 7-900332-30-8/G.030
        Mastering SID Code: (REQUIRED, IF EXISTS)
        Data-Side Mould SID Code: ifpi J205
        Label-Side Mould SID Code: (REQUIRED, IF EXISTS)
        Additional Mould: (REQUIRED, IF EXISTS)
        Toolstamp or Mastering Code (engraved/stamped): (REQUIRED, IF EXISTS)
    Barcode: 9 787900 332301
    Error Count: 0
    Comments:

Alternative Title: Railroad Tycoon II
ISBN: 7-900332-30-8/G.030
Copyright Contract Reg. No.: 冀电登字03-1999-0045
Publishing Approval File No.: 新出音管[1999]379号

    Contents: (OPTIONAL)

Version and Editions:
    Version: (REQUIRED, IF EXISTS)
    Edition/Release: Original

Extras:
    Primary Volume Descriptor (PVD):

0320 : 20 20 20 20 20 20 20 20  20 20 20 20 20 31 39 39                199
0330 : 39 31 32 30 32 31 31 35  35 31 32 30 30 00 31 39   9120211551200.19
0340 : 39 39 31 32 30 32 31 31  35 35 31 32 30 30 00 30   99120211551200.0
0350 : 30 30 30 30 30 30 30 30  30 30 30 30 30 30 30 00   000000000000000.
0360 : 30 30 30 30 30 30 30 30  30 30 30 30 30 30 30 30   0000000000000000
0370 : 00 01 00 00 00 00 00 00  00 00 00 00 00 00 00 00   ................

Copy Protection:
    Copy Protection: None found

Tracks and Write Offsets:
    DAT:

<rom name="RT2CHS (Track 01).bin" size="232165920" crc="f63bcf6f" md5="662f798f764cf80b5425a07ac9417b7c" sha1="98df5d0bceb750a28af9faadb745d21ffaa26fdf" />
<rom name="RT2CHS (Track 02).bin" size="25639152" crc="7a6a7a71" md5="0eba5119c99cd813f6971e402e08f906" sha1="72187dbe047c6ca259ce283e7cfe9a759b4232f5" />
<rom name="RT2CHS (Track 03).bin" size="31679088" crc="86c7d3d0" md5="67a1c2206b944b904e4ff5e8243c76d6" sha1="5ec6dbec185fc95db93a6ca8f38f4978918e68c6" />
<rom name="RT2CHS (Track 04).bin" size="8017968" crc="f98c12ca" md5="cf7e610adad63c32bc69ad72edb39f79" sha1="42942325e24b96b8d6907596c8020cfc3463f5dc" />
<rom name="RT2CHS (Track 05).bin" size="23948064" crc="47c537a4" md5="b44e1c7c70086145e07072bf9d7f25e3" sha1="c8208eed428fd542826e700e93d0e7c9757d181d" />
<rom name="RT2CHS (Track 06).bin" size="32772768" crc="8884f893" md5="9a1c6ada0b1fb56a88964a29dfec4aa9" sha1="9bdd843e2409d87b38d8711ebf226da43708c98f" />
<rom name="RT2CHS (Track 07).bin" size="32415264" crc="392b04d6" md5="1043f39f4c61946988b9f4548acdeac8" sha1="9030d185a1d34e6b7e7d0e8761a338f67b212708" />
<rom name="RT2CHS (Track 08).bin" size="30338448" crc="955cb178" md5="7e3ad9fc27e12283128c28d07a20c36f" sha1="145d400e9cc9601b18600709f5dd940676d51bb1" />
<rom name="RT2CHS (Track 09).bin" size="27351408" crc="cb0ce6a0" md5="3b883382ed4d5845bd2140f1ff8d3e22" sha1="43fc1b4df6c01e2360330ce569da2cc30ef25093" />
<rom name="RT2CHS (Track 10).bin" size="8841168" crc="7d1d2294" md5="5a5b890f17648c709c10478261e916ff" sha1="dbbd42378fb1badad263616ab2fe44637f50e43d" />
<rom name="RT2CHS (Track 11).bin" size="31338048" crc="18bea656" md5="34979d6c8344bf3e5353e23cc64c9973" sha1="8bf965ae20d60c4ecb2e20ce816cd2aeb3b2d770" />
<rom name="RT2CHS (Track 12).bin" size="37225104" crc="57252472" md5="024fe4b98d09335a332fa3da595b37bb" sha1="c9e34735158322a904601eeb4bef69975e56695d" />
<rom name="RT2CHS (Track 13).bin" size="35684544" crc="ede41e8d" md5="1cbe4a12f1d5f67e15e0a1b388d02054" sha1="2853dd2d24f1acbee16f962ec1986097ee817a53" />
<rom name="RT2CHS (Track 14).bin" size="7505232" crc="27aad07d" md5="208c4ddfab33335c3809a525e0d99d20" sha1="fa5fd3bd7c70bec7652eba16bf896bfd3458b650" />
<rom name="RT2CHS (Track 15).bin" size="27405504" crc="4b378c27" md5="b0473e4698a3c29b361ecb73711a1250" sha1="0636fbc3678e437fba56423acaac537992a6f18d" />
<rom name="RT2CHS (Track 16).bin" size="45330096" crc="cf5cf67e" md5="721fa6c7b37384e370860d73a90d1c75" sha1="c0e467bd7bda5b92508ca43f6e26eb7789dc5bab" />

    Cuesheet:

FILE "RT2CHS (Track 01).bin" BINARY
  TRACK 01 MODE2/2352
    INDEX 01 00:00:00
FILE "RT2CHS (Track 02).bin" BINARY
  TRACK 02 AUDIO
    INDEX 00 00:00:00
    INDEX 01 00:02:00
FILE "RT2CHS (Track 03).bin" BINARY
  TRACK 03 AUDIO
    INDEX 00 00:00:00
    INDEX 01 00:02:00
FILE "RT2CHS (Track 04).bin" BINARY
  TRACK 04 AUDIO
    INDEX 00 00:00:00
    INDEX 01 00:02:00
FILE "RT2CHS (Track 05).bin" BINARY
  TRACK 05 AUDIO
    INDEX 00 00:00:00
    INDEX 01 00:02:00
FILE "RT2CHS (Track 06).bin" BINARY
  TRACK 06 AUDIO
    INDEX 00 00:00:00
    INDEX 01 00:02:00
FILE "RT2CHS (Track 07).bin" BINARY
  TRACK 07 AUDIO
    INDEX 00 00:00:00
    INDEX 01 00:02:00
FILE "RT2CHS (Track 08).bin" BINARY
  TRACK 08 AUDIO
    INDEX 00 00:00:00
    INDEX 01 00:02:00
FILE "RT2CHS (Track 09).bin" BINARY
  TRACK 09 AUDIO
    INDEX 00 00:00:00
    INDEX 01 00:02:00
FILE "RT2CHS (Track 10).bin" BINARY
  TRACK 10 AUDIO
    INDEX 00 00:00:00
    INDEX 01 00:02:00
FILE "RT2CHS (Track 11).bin" BINARY
  TRACK 11 AUDIO
    INDEX 00 00:00:00
    INDEX 01 00:02:00
FILE "RT2CHS (Track 12).bin" BINARY
  TRACK 12 AUDIO
    INDEX 00 00:00:00
    INDEX 01 00:02:00
FILE "RT2CHS (Track 13).bin" BINARY
  TRACK 13 AUDIO
    INDEX 00 00:00:00
    INDEX 01 00:02:00
FILE "RT2CHS (Track 14).bin" BINARY
  TRACK 14 AUDIO
    INDEX 00 00:00:00
    INDEX 01 00:02:00
FILE "RT2CHS (Track 15).bin" BINARY
  TRACK 15 AUDIO
    INDEX 00 00:00:00
    INDEX 01 00:02:00
FILE "RT2CHS (Track 16).bin" BINARY
  TRACK 16 AUDIO
    INDEX 00 00:00:00
    INDEX 01 00:02:00

    Write Offset: -22