1 (edited by mictlantecuhtle 2021-02-23 14:03:14)

The third disc contained in the UK Dreamfall Limited Edition set http://forum.redump.org/topic/34465/ibm … d-edition/

Logs and image etc. at https://mega.nz/file/OwpCDAAI#N7dTiEQCg … eCHIhCg5Kc

NB, there doesn't seem to be a "N/A" or similar option for language in DICUI so I left this as the default "Klingon" setting.

EDIT: updated link as forgot to include disc photos; added disc serial to submission info

Common Disc Info:
    Title: Dreamfall: The Longest Journey Original Soundtrack
    Foreign Title (Non-latin): (OPTIONAL)
    Disc Number / Letter: (OPTIONAL)
    Disc Title: (OPTIONAL)
    System: Audio CD
    Media Type: CD-ROM
    Category: Audio
    Region: UK
    Languages: Klingon (CHANGE THIS)
    Disc Serial: EI-2125 ML02

    Ringcode Information:
        Mastering Code (laser branded/etched): 83024517 2125 CD3 @ 1
        Mastering SID Code: IFPI LW04
        Data-Side Mould SID Code: (REQUIRED, IF EXISTS)
        Label-Side Mould SID Code: (REQUIRED, IF EXISTS)
        Additional Mould: (REQUIRED, IF EXISTS)
        Toolstamp or Mastering Code (engraved/stamped): (REQUIRED, IF EXISTS)
    Barcode: (OPTIONAL)
    Error Count: 0
    Comments: (OPTIONAL)
    Contents: (OPTIONAL)

Version and Editions:
    Version: (REQUIRED, IF EXISTS)
    Edition/Release: Original (VERIFY THIS)

Extras:
    Primary Volume Descriptor (PVD): Disc has no PVD

Tracks and Write Offsets:
    DAT:

<rom name="Dreamfall - The Longest Journey Original Soundtrack (Track 01).bin" size="28167552" crc="190ba755" md5="d8a803768601c17199ce1adc1c797ba3" sha1="6b1ca084aab6093a1e5a92a27e627587df6d3418" />
<rom name="Dreamfall - The Longest Journey Original Soundtrack (Track 02).bin" size="25253424" crc="00c1a6cb" md5="a80fb37b7c10af418ea3eca67ef6305d" sha1="7d9803ce69aea108dd25a0fb65ec0103f6e93bcf" />
<rom name="Dreamfall - The Longest Journey Original Soundtrack (Track 03).bin" size="39073776" crc="672c5462" md5="a2b3e15b19e8abe028604da7ccc4359e" sha1="24cd27b3e5c767d1239519f1c29e4e1249ba2f7f" />
<rom name="Dreamfall - The Longest Journey Original Soundtrack (Track 04).bin" size="25599168" crc="76d0ce36" md5="4c40704656072d6f79ad3eab85e4fd22" sha1="6fd7c65395b39161d60745a8a2559b5479356d28" />
<rom name="Dreamfall - The Longest Journey Original Soundtrack (Track 05).bin" size="40487328" crc="51b6ed7a" md5="bb01892589cd6f3e8b03bf2d37008777" sha1="9e8eb7ac719b88b6a942f5034da38068916acf74" />
<rom name="Dreamfall - The Longest Journey Original Soundtrack (Track 06).bin" size="34080480" crc="825e9ff3" md5="fd939748dbc01fbaabb4da930d99e555" sha1="603ae825d1fa9e1451199be8e596bdee331caf9f" />
<rom name="Dreamfall - The Longest Journey Original Soundtrack (Track 07).bin" size="31704960" crc="cbc42673" md5="7e967dccbe8f4dd609fb84aea37279d1" sha1="a4a352b16817380f040e984cfe9033fbc53d913b" />
<rom name="Dreamfall - The Longest Journey Original Soundtrack (Track 08).bin" size="28280448" crc="b78b7e21" md5="1b538371983e8b9ee3baaad53c6bd7a2" sha1="82665c21c7fbf38c73eeae9590390f18aaf6cbfc" />
<rom name="Dreamfall - The Longest Journey Original Soundtrack (Track 09).bin" size="28941360" crc="370d36db" md5="2e343cfda0e3fafde374d7a23fa23e83" sha1="ce39fa73b532dbb4ef23267e08142f3124bdc001" />
<rom name="Dreamfall - The Longest Journey Original Soundtrack (Track 10).bin" size="25121712" crc="284aa019" md5="ea05e08bd7e440dcf26bb5fa43998eb3" sha1="07fc582f8ac5004daf0efcd72991593502cc6856" />
<rom name="Dreamfall - The Longest Journey Original Soundtrack (Track 11).bin" size="19291104" crc="54418e85" md5="fd0be0d1274f64de5f59d04db0f285c1" sha1="0197ace79b3aabd88902da1178a05f6d3bcda40d" />
<rom name="Dreamfall - The Longest Journey Original Soundtrack (Track 12).bin" size="34884864" crc="d3768ddc" md5="ce68efff630e2db13d63dbc9f33bf2be" sha1="16601bd7a4042572a90b48369c2161cc9a377781" />
<rom name="Dreamfall - The Longest Journey Original Soundtrack (Track 13).bin" size="64223712" crc="8da8be4f" md5="1a997ea038a8aab5444a7f98f6b9eff8" sha1="e6173cf4b0f325fcb438c2ee578d58d39e0fb0a8" />
<rom name="Dreamfall - The Longest Journey Original Soundtrack (Track 14).bin" size="34426224" crc="e1a66eb6" md5="e77d0691b4b70264850b35110f3fae0b" sha1="bce95b72732765c0f273f7a8fdcc201f95e3fda0" />
<rom name="Dreamfall - The Longest Journey Original Soundtrack (Track 15).bin" size="30733584" crc="aa14acda" md5="b5a980b9eecb837e63bdfae37c4df5a2" sha1="f37ee265ad0b39ecaa16a522127a3155458d4693" />
<rom name="Dreamfall - The Longest Journey Original Soundtrack (Track 16).bin" size="15605520" crc="dd69f3fe" md5="94171fc3a001ae7624887676cef32f88" sha1="c41ce03d0426c9879f0730500ed9d7797549dfb2" />
<rom name="Dreamfall - The Longest Journey Original Soundtrack (Track 17).bin" size="21160944" crc="17713b0f" md5="a3bf2be52d87b8d0a63ea13c92cf3247" sha1="4ed5a34978c87b7b13679ef670d566819d5ba618" />
<rom name="Dreamfall - The Longest Journey Original Soundtrack (Track 18).bin" size="12771360" crc="0939bf62" md5="34773432f81116eeac8be49c3c447ba1" sha1="266898f97673344ad6e505bd6b2d8cb21d100b01" />
<rom name="Dreamfall - The Longest Journey Original Soundtrack (Track 19).bin" size="22769712" crc="e529708d" md5="351b82813d43c94fe551f54ee2366931" sha1="06191b3ecdfb91223ed6578c803c285d74e098aa" />
<rom name="Dreamfall - The Longest Journey Original Soundtrack (Track 20).bin" size="27671280" crc="d21608db" md5="e7ae55f2941759beb12ebaf8392d3491" sha1="b09b44ad9428161c3711cae4f427ad258d26fd1e" />
<rom name="Dreamfall - The Longest Journey Original Soundtrack (Track 21).bin" size="34614384" crc="ae064986" md5="151eacec126b3396d5b78bb55826fdec" sha1="fb78c276626de8956d3c9d19f3ddf4de5af700d8" />
<rom name="Dreamfall - The Longest Journey Original Soundtrack (Track 22).bin" size="100881984" crc="d71f4133" md5="efd0822eef750258b6e058413ebcf3e3" sha1="4684bce4cf2ba77230e5e8f14e1c63e3dfe8e1ff" />

    Cuesheet:

TITLE "Dreamfall Soundtrack"
PERFORMER " "
SONGWRITER "Various"
FILE "Dreamfall - The Longest Journey Original Soundtrack (Track 01).bin" BINARY
  TRACK 01 AUDIO
    TITLE "Dreamfall Theme"
    PERFORMER "Leon Willett"
    SONGWRITER "Leon Willett"
    INDEX 01 00:00:00
FILE "Dreamfall - The Longest Journey Original Soundtrack (Track 02).bin" BINARY
  TRACK 02 AUDIO
    TITLE "The Hospital Room"
    PERFORMER "Leon Willett feat Vivi Christensen"
    SONGWRITER "Leon Willett"
    INDEX 01 00:00:00
FILE "Dreamfall - The Longest Journey Original Soundtrack (Track 03).bin" BINARY
  TRACK 03 AUDIO
    TITLE "Casablanca"
    PERFORMER "Leon Willett"
    SONGWRITER "Leon Willett"
    INDEX 01 00:00:00
FILE "Dreamfall - The Longest Journey Original Soundtrack (Track 04).bin" BINARY
  TRACK 04 AUDIO
    TITLE "Jiva"
    PERFORMER "Leon Willett"
    SONGWRITER "Leon Willett"
    INDEX 01 00:00:00
FILE "Dreamfall - The Longest Journey Original Soundtrack (Track 05).bin" BINARY
  TRACK 05 AUDIO
    TITLE "Reza's Apartment"
    PERFORMER "Leon Willett"
    SONGWRITER "Leon Willett"
    INDEX 01 00:00:00
FILE "Dreamfall - The Longest Journey Original Soundtrack (Track 06).bin" BINARY
  TRACK 06 AUDIO
    TITLE "Northlands Forest"
    PERFORMER "Leon Willett"
    SONGWRITER "Leon Willett"
    INDEX 01 00:00:00
FILE "Dreamfall - The Longest Journey Original Soundtrack (Track 07).bin" BINARY
  TRACK 07 AUDIO
    TITLE "Newport"
    PERFORMER "Leon Willett"
    SONGWRITER "Leon Willett"
    INDEX 01 00:00:00
FILE "Dreamfall - The Longest Journey Original Soundtrack (Track 08).bin" BINARY
  TRACK 08 AUDIO
    TITLE "The Underground Cave"
    PERFORMER "Leon Willett"
    SONGWRITER "Leon Willett"
    INDEX 01 00:00:00
FILE "Dreamfall - The Longest Journey Original Soundtrack (Track 09).bin" BINARY
  TRACK 09 AUDIO
    TITLE "Marcuria"
    PERFORMER "Leon Willett"
    SONGWRITER "Leon Willett"
    INDEX 01 00:00:00
FILE "Dreamfall - The Longest Journey Original Soundtrack (Track 10).bin" BINARY
  TRACK 10 AUDIO
    TITLE "Meeting April Ryan/April's Theme"
    PERFORMER "Leon Willett"
    SONGWRITER "Leon Willett"
    INDEX 01 00:00:00
FILE "Dreamfall - The Longest Journey Original Soundtrack (Track 11).bin" BINARY
  TRACK 11 AUDIO
    TITLE "Necropolis"
    PERFORMER "Leon Willett"
    SONGWRITER "Leon Willett"
    INDEX 01 00:00:00
FILE "Dreamfall - The Longest Journey Original Soundtrack (Track 12).bin" BINARY
  TRACK 12 AUDIO
    TITLE "Sadir"
    PERFORMER "Leon Willett"
    SONGWRITER "Leon Willett"
    INDEX 01 00:00:00
FILE "Dreamfall - The Longest Journey Original Soundtrack (Track 13).bin" BINARY
  TRACK 13 AUDIO
    TITLE "WATI Corp"
    PERFORMER "Leon Willett"
    SONGWRITER "Leon Willett"
    INDEX 01 00:00:00
FILE "Dreamfall - The Longest Journey Original Soundtrack (Track 14).bin" BINARY
  TRACK 14 AUDIO
    TITLE "The Swamplands"
    PERFORMER "Leon Willett"
    SONGWRITER "Leon Willett"
    INDEX 01 00:00:00
FILE "Dreamfall - The Longest Journey Original Soundtrack (Track 15).bin" BINARY
  TRACK 15 AUDIO
    TITLE "Kian's theme"
    PERFORMER "Leon Willett"
    SONGWRITER "Leon Willett"
    INDEX 01 00:00:00
FILE "Dreamfall - The Longest Journey Original Soundtrack (Track 16).bin" BINARY
  TRACK 16 AUDIO
    TITLE "Zoe's Theme (bonus track)"
    PERFORMER "Leon Willett"
    SONGWRITER "Leon Willett"
    INDEX 01 00:00:00
FILE "Dreamfall - The Longest Journey Original Soundtrack (Track 17).bin" BINARY
  TRACK 17 AUDIO
    TITLE "St. Petersburg"
    PERFORMER "Simon Poole"
    SONGWRITER "Simon Poole"
    INDEX 01 00:00:00
FILE "Dreamfall - The Longest Journey Original Soundtrack (Track 18).bin" BINARY
  TRACK 18 AUDIO
    TITLE "The Factory"
    PERFORMER "Simon Poole"
    SONGWRITER "Simon Poole"
    INDEX 01 00:00:00
FILE "Dreamfall - The Longest Journey Original Soundtrack (Track 19).bin" BINARY
  TRACK 19 AUDIO
    TITLE "Lana and Maud (edit)"
    PERFORMER "Slipperhero"
    SONGWRITER "Slipperhero"
    INDEX 01 00:00:00
FILE "Dreamfall - The Longest Journey Original Soundtrack (Track 20).bin" BINARY
  TRACK 20 AUDIO
    TITLE "Clay (edit)"
    PERFORMER "Octavcat"
    SONGWRITER "Octavcat"
    INDEX 01 00:00:00
FILE "Dreamfall - The Longest Journey Original Soundtrack (Track 21).bin" BINARY
  TRACK 21 AUDIO
    TITLE "Rush"
    PERFORMER "Ingvild Hasund"
    SONGWRITER "Ingvild Hasund"
    INDEX 01 00:00:00
FILE "Dreamfall - The Longest Journey Original Soundtrack (Track 22).bin" BINARY
  TRACK 22 AUDIO
    TITLE "Faith"
    PERFORMER "Morten S�rlie"
    SONGWRITER "Morten S�rlie"
    INDEX 01 00:00:00

    Write Offset: 0