logs: https://www.dropbox.com/s/g3mutppx2ewv6md
db: http://redump.org/disc/72879/

System: Fujitsu FM Towns series
Media: CD-ROM
Title: Burai: Kanketsu-hen
Foreign title: 
Disc number/letter: -
Disc title: -
Category: Games
Region: Japan
Languages: 
Serial: HMC-113
Ring:
  Mastering Code: HMC-113 T1
  Mastering SID Code: -
  Toolstamp or Mastering Code: -
  Mould SID Code: -
  Additional Mould Text: -
Write offset: +1039
Barcode: 4 967652 102420
EXE date: 
  1991-04-18T23:26:01+00:00 (BURAI.EXP)
  1991-04-18T23:26:03+00:00 (MAIN.EXP)
  1991-04-18T23:24:32+00:00 (RUN386.EXE)
Errors count: edccchk:0, DIC:0, CDMage:0
Comments: -
Contents: -
Version: 
Editions/Releases: Original

Primary Volume Descriptor (PVD):
0320 : 20 20 20 20 20 20 20 20  20 20 20 20 20 31 39 39                199
0330 : 31 30 34 31 38 32 33 32  33 30 39 30 30 00 31 39   1041823230900.19
0340 : 39 31 30 34 31 38 32 33  32 36 32 38 30 30 00 30   91041823262800.0
0350 : 30 30 30 30 30 30 30 30  30 30 30 30 30 30 30 00   000000000000000.
0360 : 30 30 30 30 30 30 30 30  30 30 30 30 30 30 30 30   0000000000000000
0370 : 00 01 00 00 00 00 00 00  00 00 00 00 00 00 00 00   ................

ClrMamePro data:
<rom name="dic (Track 01).bin" size="20815200" crc="ea057b75" md5="2e11384d0409083b2f77e7933e46c2d5" sha1="79dcfd0df5dce948596360d90e298d665a9357b9" />
<rom name="dic (Track 02).bin" size="31575600" crc="2660447e" md5="0daf8ddb0133314028ac0fd62bfddedd" sha1="5b6e3b2e34107244a166a3d2e095e1c5b740291c" />
<rom name="dic (Track 03).bin" size="35828016" crc="7e5e00f3" md5="80c4a4d8cfc8e7ba0b0cceb5cbbf9e5c" sha1="5524d39ec94a9f8e325d2a93df302c8f5fd55cbf" />
<rom name="dic (Track 04).bin" size="5602464" crc="535491bf" md5="276bb3afc687afd7ca6dce9f6b297166" sha1="02e5d74897c8f75e21d47e50d85d2d2b706a08a5" />
<rom name="dic (Track 05).bin" size="20998656" crc="c4208823" md5="8b2c513ea1aff8e47ccc21ce73eee88d" sha1="6bddecbfbca1ab5d810d8685133b549b942e290f" />
<rom name="dic (Track 06).bin" size="7625184" crc="8858251d" md5="14b381c1c7dff51299ef0f4b85742267" sha1="99cc2311b4b06429709b40fe69d55163054970ad" />
<rom name="dic (Track 07).bin" size="34374480" crc="d8e1094f" md5="1bec68799a83b8f0bc60e983ef78ece2" sha1="ca34a7532ddf489108fa3e087fdee6ad13dd4fd6" />
<rom name="dic (Track 08).bin" size="14448336" crc="84d77d0d" md5="ee96c439b4ddb9fdc088e162ddb1d726" sha1="3dd800f2f8e5f89f0314f09b170336c55e956b23" />
<rom name="dic (Track 09).bin" size="26024880" crc="c60879cd" md5="10c9c864d8ba981cc63bada7dcde045f" sha1="73c6844554e732d74e7665a6bb0a10c4bffd692a" />
<rom name="dic (Track 10).bin" size="5362560" crc="6c67135a" md5="1c845170607f283f5e3222adec26d9e0" sha1="24cf0549ad8185836cfd6d400a33a2bdbd0502d8" />
<rom name="dic (Track 11).bin" size="35037744" crc="5a3ce2e7" md5="c7004b8b9d448761761457bac1a9978f" sha1="1d0fdfe849bc43c2deeafd3a99c025cd9c851918" />
<rom name="dic (Track 12).bin" size="13547520" crc="cc8e5d41" md5="dbc2bd4ddc75a4039f6661d73f3ac2bc" sha1="09b6b81ba5736f06d5dcaf0a6a7df25a398e08ad" />
<rom name="dic (Track 13).bin" size="12983040" crc="ba5323af" md5="739318322ad639cf264ed224fa59131d" sha1="5b468cc5a0a3e5ec174bb51909e11b5b3f668ed1" />
<rom name="dic (Track 14).bin" size="99513120" crc="92253ae8" md5="7e7d0d42e2a0c3018d9c1a5f914a7db9" sha1="c39de65f227806e1af08433fc2d2e8abe7c72c25" />

Cuesheet:
FILE "dic (Track 01).bin" BINARY
  TRACK 01 MODE1/2352
    INDEX 01 00:00:00
FILE "dic (Track 02).bin" BINARY
  TRACK 02 AUDIO
    INDEX 00 00:00:00
    INDEX 01 00:02:00
FILE "dic (Track 03).bin" BINARY
  TRACK 03 AUDIO
    INDEX 00 00:00:00
    INDEX 01 00:03:38
FILE "dic (Track 04).bin" BINARY
  TRACK 04 AUDIO
    INDEX 00 00:00:00
    INDEX 01 00:03:37
FILE "dic (Track 05).bin" BINARY
  TRACK 05 AUDIO
    INDEX 00 00:00:00
    INDEX 01 00:03:38
FILE "dic (Track 06).bin" BINARY
  TRACK 06 AUDIO
    INDEX 00 00:00:00
    INDEX 01 00:03:37
FILE "dic (Track 07).bin" BINARY
  TRACK 07 AUDIO
    INDEX 00 00:00:00
    INDEX 01 00:03:38
FILE "dic (Track 08).bin" BINARY
  TRACK 08 AUDIO
    INDEX 00 00:00:00
    INDEX 01 00:03:38
FILE "dic (Track 09).bin" BINARY
  TRACK 09 AUDIO
    INDEX 00 00:00:00
    INDEX 01 00:03:37
FILE "dic (Track 10).bin" BINARY
  TRACK 10 AUDIO
    INDEX 00 00:00:00
    INDEX 01 00:03:37
FILE "dic (Track 11).bin" BINARY
  TRACK 11 AUDIO
    INDEX 00 00:00:00
    INDEX 01 00:03:37
FILE "dic (Track 12).bin" BINARY
  TRACK 12 AUDIO
    INDEX 00 00:00:00
    INDEX 01 00:03:38
FILE "dic (Track 13).bin" BINARY
  TRACK 13 AUDIO
    INDEX 00 00:00:00
    INDEX 01 00:03:38
FILE "dic (Track 14).bin" BINARY
  TRACK 14 AUDIO
    INDEX 00 00:00:00
    INDEX 01 00:03:38