different write offset

logs: https://www.dropbox.com/s/nu9ehbi9tenq2gm
db: http://redump.org/disc/74800/

System: Fujitsu FM Towns series
Media: CD-ROM
Title: Burai
Foreign title: 
Disc number/letter: -
Disc title: -
Category: Games
Region: Japan
Languages: 
Serial: HMB-122
Ring:
  Mastering Code: HMB-122 T1
  Mastering SID Code: -
  Toolstamp or Mastering Code: -
  Mould SID Code: -
  Additional Mould Text: -
Write offset: +1144
Barcode: 4 967652 400021
EXE date: 
  1990-03-14T14:04:59+00:00 (BURAI.EXP)
  1990-03-12T10:34:53+00:00 (RUN386.EXE)
Errors count: edccchk:0, DIC:0, CDMage:0
Comments: -
Contents: -
Version: 
Editions/Releases: Original

Primary Volume Descriptor (PVD):
0320 : 00 00 00 00 00 00 00 00  00 00 00 00 00 31 39 39   .............199
0330 : 30 30 33 31 32 31 30 33  31 31 30 30 30 00 31 39   0031210311000.19
0340 : 39 30 30 33 31 34 31 34  30 36 33 30 30 30 00 30   90031414063000.0
0350 : 30 30 30 30 30 30 30 30  30 30 30 30 30 30 30 00   000000000000000.
0360 : 30 30 30 30 30 30 30 30  30 30 30 30 30 30 30 30   0000000000000000
0370 : 00 01 00 00 00 00 00 00  00 00 00 00 00 00 00 00   ................

ClrMamePro data:
<rom name="dic (Track 01).bin" size="20286000" crc="ba35ddf6" md5="85985759a564dc4f22e84dd9cded8b40" sha1="d6759ff856dab45ad66b4dc2d9ee0c458c7f42dd" />
<rom name="dic (Track 02).bin" size="39579456" crc="f9413d98" md5="ba066735a16456b85a1672f9adc650da" sha1="3566eac1e80829a678ed9eb257bfb86e2194e55e" />
<rom name="dic (Track 03).bin" size="16217040" crc="b011b950" md5="6375c7ac9d48cb32cec39187f4cde175" sha1="ecbcc46bb6e6eed4bcda9e379de582070ac50885" />
<rom name="dic (Track 04).bin" size="22579200" crc="b86d40cc" md5="71e9a7a28751d6f002bfab04fa1b9d93" sha1="0716037c54b0fb62951cf6c54cfb30301f1120f4" />
<rom name="dic (Track 05).bin" size="16762704" crc="0f5c43e5" md5="5f2ba8b6cd02abc533b643f50ce7b8af" sha1="c84f7ad5071589c86137950283ab58e5c54ec70b" />
<rom name="dic (Track 06).bin" size="25914336" crc="aaccbef5" md5="50ef2fe0bc51a6dd05701f692997fcad" sha1="2afaf2f7031c71d85f821fe175da2d71310fb694" />
<rom name="dic (Track 07).bin" size="30886464" crc="685e5bf8" md5="7d559aef161467ac04adaa7a9d15a84c" sha1="ab589a83f909fe5d5567b03284de5ca6fc8896e5" />
<rom name="dic (Track 08).bin" size="23809296" crc="c7988e03" md5="1b8d2004fc651296a76997fd8d6cb2c2" sha1="5442305a6f87ea2bd10c7fe38f4549ed777bda32" />
<rom name="dic (Track 09).bin" size="17233104" crc="4849e651" md5="6e078aa34d03507b47916f1f0a76423b" sha1="58972129d3152f1eb94378570c3c7c184e5c6ab5" />
<rom name="dic (Track 10).bin" size="19980240" crc="ba57a716" md5="870163bc62525dec16e4bedf9363a189" sha1="6f5f5936b51f7f32b00fbbb6807b303ed5bbcd5b" />
<rom name="dic (Track 11).bin" size="18522000" crc="006a0030" md5="b88cc0812316af52eb2c0f4e33d34ad2" sha1="1cc20339cbe10d777dd72cb03aed1c6703a75363" />
<rom name="dic (Track 12).bin" size="27349056" crc="724f8f2c" md5="92b8addb3c995a8f251a3d894e83861f" sha1="52d61c5eee1aa35e36200dead806909429ee9f4b" />
<rom name="dic (Track 13).bin" size="22948464" crc="da9eac2f" md5="4f4bdc9ddcab7879eb6f0b5f39dad713" sha1="9b6092b672a963256d549027d3dcc7f78ca9512c" />
<rom name="dic (Track 14).bin" size="26965680" crc="525e366e" md5="150fe8196de458599bf2d42076ff0b60" sha1="2cef6d10986c7ac177dac49494dd9ba4a1eb13c4" />
<rom name="dic (Track 15).bin" size="15346800" crc="02b5ef14" md5="dc951c4e84ae9c0fa0c3a2b22823f2a4" sha1="7030f765b006cb8ed8032fd43ea693e06e691d28" />
<rom name="dic (Track 16).bin" size="21010416" crc="bab7e8b1" md5="ea954bedb86abef84ac6265e36dd8cf8" sha1="a35259e464987bc3288e7fb5cf5323f38bbb6d0f" />
<rom name="dic (Track 17).bin" size="17985744" crc="c1f5ad7b" md5="4a7c62f2c085c898403f78d226856ad9" sha1="497e4a191b2bf59ad81d2ee6e30a893253678e2f" />
<rom name="dic (Track 18).bin" size="25232256" crc="da4e679a" md5="aaed6f39de2ac6edcdc66283ebb26f93" sha1="69edf7905665c46619464d1fc0b2d5c8dae07b38" />
<rom name="dic (Track 19).bin" size="21278544" crc="c626e8fc" md5="8a1fc1f7a4dd0297bc0e19b14d064598" sha1="b254e542f65826ea4e16bac6f73f4b00e5c3f5b5" />
<rom name="dic (Track 20).bin" size="28278096" crc="cffe11b9" md5="cb97369b2aeed99addce62ce4e46b88f" sha1="8fdb23cd1b527b41f1852b8c597bacc1e02ee2ca" />
<rom name="dic (Track 21).bin" size="19062960" crc="2e4ade6e" md5="69c9071ae618dba3534131446f089fcd" sha1="80af4fbf1930baaec153471f5616f068c1192d7c" />
<rom name="dic (Track 22).bin" size="13347600" crc="ef0c8f66" md5="acb181ddf3314bbcfa80f321a2c04d17" sha1="e98a0e358d4927875889144f1a3f2c0c2e40d5c3" />
<rom name="dic (Track 23).bin" size="39913440" crc="bf6061a0" md5="cc5758444ae3c348a6b01702bbdf28dd" sha1="7b8ffefb5ee205d4d258bb48483e1941359ea897" />
<rom name="dic (Track 24).bin" size="8478960" crc="a664a911" md5="7cbd1a71c6d22c459e4e16fa858b154a" sha1="dcff4e46e5fc32954bc0a93e573c26781d806163" />
<rom name="dic (Track 25).bin" size="14622384" crc="0d90a0c6" md5="ca3daee3d3f96b6a62199ee6f2e23797" sha1="f31309f2cf7c80aee1b1ea3112aaedc32d7ce004" />
<rom name="dic (Track 26).bin" size="17470656" crc="780369ab" md5="809946ad5be18b5729bf97a61c34c0a7" sha1="f642d71f7624ebe106f786c8414a9d3bca9ac8e3" />
<rom name="dic (Track 27).bin" size="11289600" crc="aefc05a2" md5="6c1c13ff745b19602b0ec7dffed16825" sha1="0bf133301a2813b5c557a357dc4a3d25206e95f5" />

Cuesheet:
CATALOG 0000000000000
FILE "dic (Track 01).bin" BINARY
  TRACK 01 MODE1/2352
    INDEX 01 00:00:00
FILE "dic (Track 02).bin" BINARY
  TRACK 02 AUDIO
    INDEX 00 00:00:00
    INDEX 01 00:03:00
FILE "dic (Track 03).bin" BINARY
  TRACK 03 AUDIO
    INDEX 00 00:00:00
    INDEX 01 00:04:00
FILE "dic (Track 04).bin" BINARY
  TRACK 04 AUDIO
    INDEX 00 00:00:00
    INDEX 01 00:04:00
FILE "dic (Track 05).bin" BINARY
  TRACK 05 AUDIO
    INDEX 00 00:00:00
    INDEX 01 00:04:00
FILE "dic (Track 06).bin" BINARY
  TRACK 06 AUDIO
    INDEX 00 00:00:00
    INDEX 01 00:04:00
FILE "dic (Track 07).bin" BINARY
  TRACK 07 AUDIO
    INDEX 00 00:00:00
    INDEX 01 00:04:00
FILE "dic (Track 08).bin" BINARY
  TRACK 08 AUDIO
    INDEX 00 00:00:00
    INDEX 01 00:04:00
FILE "dic (Track 09).bin" BINARY
  TRACK 09 AUDIO
    INDEX 00 00:00:00
    INDEX 01 00:04:00
FILE "dic (Track 10).bin" BINARY
  TRACK 10 AUDIO
    INDEX 00 00:00:00
    INDEX 01 00:04:00
FILE "dic (Track 11).bin" BINARY
  TRACK 11 AUDIO
    INDEX 00 00:00:00
    INDEX 01 00:04:00
FILE "dic (Track 12).bin" BINARY
  TRACK 12 AUDIO
    INDEX 00 00:00:00
    INDEX 01 00:04:00
FILE "dic (Track 13).bin" BINARY
  TRACK 13 AUDIO
    INDEX 00 00:00:00
    INDEX 01 00:04:00
FILE "dic (Track 14).bin" BINARY
  TRACK 14 AUDIO
    INDEX 00 00:00:00
    INDEX 01 00:04:00
FILE "dic (Track 15).bin" BINARY
  TRACK 15 AUDIO
    INDEX 00 00:00:00
    INDEX 01 00:04:00
FILE "dic (Track 16).bin" BINARY
  TRACK 16 AUDIO
    INDEX 00 00:00:00
    INDEX 01 00:04:00
FILE "dic (Track 17).bin" BINARY
  TRACK 17 AUDIO
    INDEX 00 00:00:00
    INDEX 01 00:04:00
FILE "dic (Track 18).bin" BINARY
  TRACK 18 AUDIO
    INDEX 00 00:00:00
    INDEX 01 00:04:00
FILE "dic (Track 19).bin" BINARY
  TRACK 19 AUDIO
    INDEX 00 00:00:00
    INDEX 01 00:04:00
FILE "dic (Track 20).bin" BINARY
  TRACK 20 AUDIO
    INDEX 00 00:00:00
    INDEX 01 00:04:00
FILE "dic (Track 21).bin" BINARY
  TRACK 21 AUDIO
    INDEX 00 00:00:00
    INDEX 01 00:04:00
FILE "dic (Track 22).bin" BINARY
  TRACK 22 AUDIO
    INDEX 00 00:00:00
    INDEX 01 00:04:00
FILE "dic (Track 23).bin" BINARY
  TRACK 23 AUDIO
    INDEX 00 00:00:00
    INDEX 01 00:04:00
FILE "dic (Track 24).bin" BINARY
  TRACK 24 AUDIO
    INDEX 00 00:00:00
    INDEX 01 00:04:00
FILE "dic (Track 25).bin" BINARY
  TRACK 25 AUDIO
    INDEX 00 00:00:00
    INDEX 01 00:04:00
FILE "dic (Track 26).bin" BINARY
  TRACK 26 AUDIO
    INDEX 00 00:00:00
    INDEX 01 00:04:00
FILE "dic (Track 27).bin" BINARY
  TRACK 27 AUDIO
    INDEX 00 00:00:00
    INDEX 01 00:04:00