Page: http://redump.org/disc/11236/
Log: https://cdn.discordapp.com/attachments/ … IMECOMM.7z

Common Disc Info:
    Title: Time Commando
    Foreign Title (Non-latin): (OPTIONAL)
    Disc Number / Letter: (OPTIONAL)
    Disc Title: (OPTIONAL)
    System: IBM PC Compatible
    Media Type: CD-ROM
    Category: Games
    Region: USA
    Languages: Klingon (CHANGE THIS)
    Disc Serial: CDD-3146-101-U3

    Ringcode Information:
        Mastering Code (laser branded/etched): CDD3146 R1J
        Mastering SID Code: IFPI L239
        Data-Side Mould SID Code: IFPI4111
        Label-Side Mould SID Code: (REQUIRED, IF EXISTS)
        Additional Mould: (REQUIRED, IF EXISTS)
        Toolstamp or Mastering Code (engraved/stamped): 1 2
    Barcode: (OPTIONAL)
    Error Count: 1
    Comments: [T:ISBN] (OPTIONAL)
    Contents: (OPTIONAL)

Version and Editions:
    Version: (REQUIRED, IF EXISTS)
    Edition/Release: Original (VERIFY THIS)

Extras:
    Primary Volume Descriptor (PVD):

0320 : 20 20 20 20 20 20 20 20  20 20 20 20 20 30 30 30                000
0330 : 30 30 30 30 30 30 30 30  30 30 30 30 30 00 30 30   0000000000000.00
0340 : 30 30 30 30 30 30 30 30  30 30 30 30 30 30 00 30   00000000000000.0
0350 : 30 30 30 30 30 30 30 30  30 30 30 30 30 30 30 00   000000000000000.
0360 : 30 30 30 30 30 30 30 30  30 30 30 30 30 30 30 30   0000000000000000
0370 : 00 01 00 00 00 00 00 00  00 00 00 00 00 00 00 00   ................

Copy Protection:
    Copy Protection: None found

Tracks and Write Offsets:
    DAT:

<rom name="TIMECOMM (Track 1).bin" size="622412112" crc="25d468e7" md5="f6415522d9f9c824dd8b6c00294518e5" sha1="7ac14cc4f67020f996ab785898f69d4cc3e8cbb7" />
<rom name="TIMECOMM (Track 2).bin" size="33400752" crc="32188edb" md5="6e1ff8eeb7684d1458d09e64c4359c7c" sha1="a890ed672ab01577735e61cbfde59132e95ec429" />
<rom name="TIMECOMM (Track 3).bin" size="33739440" crc="bbc1ae29" md5="e5f3b3be4e1a6c57ea5fb4b687bd3c72" sha1="f1b7b972a519b65118438e690f22bfe7f4ba9985" />

    Cuesheet:

CATALOG 0000000000000
FILE "TIMECOMM (Track 1).bin" BINARY
  TRACK 01 MODE1/2352
    INDEX 01 00:00:00
FILE "TIMECOMM (Track 2).bin" BINARY
  TRACK 02 AUDIO
    INDEX 00 00:00:00
    INDEX 01 00:01:74
FILE "TIMECOMM (Track 3).bin" BINARY
  TRACK 03 AUDIO
    INDEX 00 00:00:00
    INDEX 01 00:01:74

    Write Offset: 222