Hi,

Here's my redump info for PS1 game GTA - Grand Theft Auto, European version.
http://dl.free.fr/getfile.pl?file=/GsqLO5un

Common Disc Info:
    Title: GTA - Grand Theft Auto
    Foreign Title (Non-latin): (OPTIONAL)
    Disc Number / Letter: (OPTIONAL)
    Disc Title: (OPTIONAL)
    System: Sony PlayStation
    Media Type: CD-ROM
    Category: Games
    Region: Europe
    Languages: English, French, German, Italian
    Disc Serial: SLES-00032

    Ringcode Information:
        Mastering Code (laser branded/etched): (REQUIRED, IF EXISTS)
        Mastering SID Code: (REQUIRED, IF EXISTS)
        Data-Side Mould SID Code: IFPI 943B
        Label-Side Mould SID Code: (REQUIRED, IF EXISTS)
        Additional Mould: (REQUIRED, IF EXISTS)
        Toolstamp or Mastering Code (engraved/stamped): (REQUIRED, IF EXISTS)
    Barcode: 7 68964 28012 7
    EXE/Build Date: 1997-10-25
    Error Count: 1
    Comments: Internal Disc Serial: SLES-00032
    Contents: (OPTIONAL)

Version and Editions:
    Version: (REQUIRED, IF EXISTS)
    Edition/Release: Original

EDC:
    EDC: No

Extras:
    Primary Volume Descriptor (PVD):

0320 : 20 20 20 20 20 20 20 20  20 20 20 20 20 31 39 39                199
0330 : 37 31 31 30 37 31 35 30  30 30 30 30 30 24 30 30   7110715000000$00
0340 : 30 30 30 30 30 30 30 30  30 30 30 30 30 30 00 30   00000000000000.0
0350 : 30 30 30 30 30 30 30 30  30 30 30 30 30 30 30 00   000000000000000.
0360 : 30 30 30 30 30 30 30 30  30 30 30 30 30 30 30 30   0000000000000000
0370 : 00 01 00 00 00 00 00 00  00 00 00 00 00 00 00 00   ................

Copy Protection:
    Anti-modchip: No
    LibCrypt: No

Tracks and Write Offsets:
    DAT:

<rom name="GTA (Track 01).bin" size="93873024" crc="37532070" md5="ec46c789e9db39d1b47f8e2633154a61" sha1="41eb01a659b69d806d9a592b35cf82a4e2907d44" />
<rom name="GTA (Track 02).bin" size="24484320" crc="cddb3815" md5="a7a3b3494014a37772f330619382dede" sha1="56cd18ec0fd69f723112631e303adaa1158ccfa6" />
<rom name="GTA (Track 03).bin" size="78782592" crc="5e6a434a" md5="bd742b64c99c349133a5c180393184b7" sha1="98900c9b6564c8e1d31185ab381cb5ca476f6464" />
<rom name="GTA (Track 04).bin" size="102808272" crc="7b8a1b0f" md5="5aee6ac3691171a082e38f0410757b1a" sha1="e37c16616c39018418fb89be558388017659b474" />
<rom name="GTA (Track 05).bin" size="101973312" crc="7b7a3316" md5="c2463e9f9711091b003dead5de939896" sha1="138775bdd87ac2262fd77bd9830f5f7f2e328ccf" />
<rom name="GTA (Track 06).bin" size="79770432" crc="fb4d2397" md5="89aeec3d6026ab7d49c687e13fe38322" sha1="18135cc8ff6eed29b2f18b388e26ea1793b707ce" />
<rom name="GTA (Track 07).bin" size="116449872" crc="69fa7ea6" md5="e46c0e8e8fcef8551f13f71b56bdfa39" sha1="b56800f6b625116125b7486bce473cf28856d19e" />
<rom name="GTA (Track 08).bin" size="34012272" crc="60880943" md5="7d594a538be9ce8797f37e8008866bc7" sha1="2b6d70d350b4318b1fb41a0e0ebe80347b148d51" />
<rom name="GTA (Track 09).bin" size="13013616" crc="0e97c512" md5="9375be17bb1e8381a23eced9ef0439c3" sha1="884f4f1c7585c82be68e7b80594bb437cf123d40" />
<rom name="GTA (Track 10).bin" size="11026176" crc="f32eebce" md5="16a443365140bf08d5713925c38dbcf0" sha1="bf7aa32a26cee4b4551ad33422c63e551b692636" />
<rom name="GTA (Track 11).bin" size="92835792" crc="704a4cff" md5="9628391c1fec0d8c8b931e1c4b6d8d00" sha1="679a8d6d6e2440ee2311a47dbb832898ccf392f0" />

    Cuesheet:

FILE "GTA (Track 01).bin" BINARY
  TRACK 01 MODE2/2352
    INDEX 01 00:00:00
FILE "GTA (Track 02).bin" BINARY
  TRACK 02 AUDIO
    INDEX 00 00:00:00
    INDEX 01 00:02:00
FILE "GTA (Track 03).bin" BINARY
  TRACK 03 AUDIO
    INDEX 00 00:00:00
    INDEX 01 00:02:00
FILE "GTA (Track 04).bin" BINARY
  TRACK 04 AUDIO
    INDEX 00 00:00:00
    INDEX 01 00:02:00
FILE "GTA (Track 05).bin" BINARY
  TRACK 05 AUDIO
    INDEX 00 00:00:00
    INDEX 01 00:02:00
FILE "GTA (Track 06).bin" BINARY
  TRACK 06 AUDIO
    INDEX 00 00:00:00
    INDEX 01 00:02:00
FILE "GTA (Track 07).bin" BINARY
  TRACK 07 AUDIO
    INDEX 00 00:00:00
    INDEX 01 00:02:00
FILE "GTA (Track 08).bin" BINARY
  TRACK 08 AUDIO
    INDEX 00 00:00:00
    INDEX 01 00:02:00
FILE "GTA (Track 09).bin" BINARY
  TRACK 09 AUDIO
    INDEX 00 00:00:00
    INDEX 01 00:02:00
FILE "GTA (Track 10).bin" BINARY
  TRACK 10 AUDIO
    INDEX 00 00:00:00
    INDEX 01 00:02:00
FILE "GTA (Track 11).bin" BINARY
  TRACK 11 AUDIO
    INDEX 00 00:00:00
    INDEX 01 00:02:00

    Write Offset: 2

CS