Hi,

Here's my redump info for PS1 game Rally Cross (Europe).
http://dl.free.fr/getfile.pl?file=/pvC4mUzM

Common Disc Info:
    Title: Rally Cross
    Foreign Title (Non-latin): (OPTIONAL)
    Disc Number / Letter: (OPTIONAL)
    Disc Title: (OPTIONAL)
    System: Sony PlayStation
    Media Type: CD-ROM
    Category: Games
    Region: Europe
    Languages: English
    Disc Serial: SCES-00408

    Ringcode Information:
        Mastering Code (laser branded/etched): (REQUIRED, IF EXISTS)
        Mastering SID Code: (REQUIRED, IF EXISTS)
        Data-Side Mould SID Code: (REQUIRED, IF EXISTS)
        Label-Side Mould SID Code: (REQUIRED, IF EXISTS)
        Additional Mould: (REQUIRED, IF EXISTS)
        Toolstamp or Mastering Code (engraved/stamped): IFPI 94S1
    Barcode: 7 11719 66562 5
    EXE/Build Date: 1997-04-07
    Error Count: 1
    Comments: Internal Disc Serial: SCES-00408
    Contents: (OPTIONAL)

Version and Editions:
    Version: (REQUIRED, IF EXISTS)
    Edition/Release: Original

EDC:
    EDC: No

Extras:
    Primary Volume Descriptor (PVD):

0320 : 20 20 20 20 20 20 20 20  20 20 20 20 20 31 39 39                199
0330 : 37 30 34 32 34 31 31 32  33 30 33 30 30 24 30 30   7042411230300$00
0340 : 30 30 30 30 30 30 30 30  30 30 30 30 30 30 00 30   00000000000000.0
0350 : 30 30 30 30 30 30 30 30  30 30 30 30 30 30 30 00   000000000000000.
0360 : 30 30 30 30 30 30 30 30  30 30 30 30 30 30 30 30   0000000000000000
0370 : 00 01 00 00 00 00 00 00  00 00 00 00 00 00 00 00   ................

Copy Protection:
    Anti-modchip: No
    LibCrypt: No

Tracks and Write Offsets:
    DAT:

<rom name="RallyCrodd (Track 1).bin" size="181503840" crc="01619ae9" md5="5686b21bfc2e91b21dd469c206ad063e" sha1="becf97c75784fa583d506f80953fce0becf77510" />
<rom name="RallyCrodd (Track 2).bin" size="50974896" crc="c9385197" md5="96ac68a0402d11787a3d0eca228a0e47" sha1="9ead31eee91b8112f0c6e166c1c441ed46b10870" />
<rom name="RallyCrodd (Track 3).bin" size="64470672" crc="a00e5819" md5="f622d7c57ade5c4824d6501152b55f5d" sha1="85736fdae10f737960a06b18242b50514c84e518" />
<rom name="RallyCrodd (Track 4).bin" size="74158560" crc="fffee276" md5="867b2ddb6802a09159bc694ade051290" sha1="9d3f2e0e0bf5122dcf252e5ce157c5a0b3173790" />
<rom name="RallyCrodd (Track 5).bin" size="66347568" crc="8b5f4ec2" md5="915b8ca5e75f63b4bd4e6291d8c794d4" sha1="58a2b58b7b374859ca489539dc0292268b3b3e74" />
<rom name="RallyCrodd (Track 6).bin" size="63026544" crc="e7a4da36" md5="fc42f8738f3ac8d19e10f9174fc7ca10" sha1="51e0cbe82cbc5537b2d3eff82bb3178bcc84286f" />
<rom name="RallyCrodd (Track 7).bin" size="75673248" crc="4df036e7" md5="1a2eb0ce9706beaae93082cd5ff6b0ab" sha1="a50e987e80ef0fef7fd7146b0e11c99a3c32745d" />

    Cuesheet:

FILE "RallyCrodd (Track 1).bin" BINARY
  TRACK 01 MODE2/2352
    INDEX 01 00:00:00
FILE "RallyCrodd (Track 2).bin" BINARY
  TRACK 02 AUDIO
    INDEX 00 00:00:00
    INDEX 01 00:02:00
FILE "RallyCrodd (Track 3).bin" BINARY
  TRACK 03 AUDIO
    INDEX 00 00:00:00
    INDEX 01 00:02:00
FILE "RallyCrodd (Track 4).bin" BINARY
  TRACK 04 AUDIO
    INDEX 00 00:00:00
    INDEX 01 00:02:00
FILE "RallyCrodd (Track 5).bin" BINARY
  TRACK 05 AUDIO
    INDEX 00 00:00:00
    INDEX 01 00:02:00
FILE "RallyCrodd (Track 6).bin" BINARY
  TRACK 06 AUDIO
    INDEX 00 00:00:00
    INDEX 01 00:02:00
FILE "RallyCrodd (Track 7).bin" BINARY
  TRACK 07 AUDIO
    INDEX 00 00:00:00
    INDEX 01 00:02:00

    Write Offset: 2

CS