1 (edited by ClaudeSpeed 2020-11-21 11:30:42)

Hi,

Here's my redump info for PS1 game Tekken 3 (Europe).
http://dl.free.fr/getfile.pl?file=/7luZzwFm

Common Disc Info:
    Title: Tekken 3
    Foreign Title (Non-latin): (OPTIONAL)
    Disc Number / Letter: (OPTIONAL)
    Disc Title: (OPTIONAL)
    System: Sony PlayStation
    Media Type: CD-ROM
    Category: Games
    Region: Europe
    Languages: English
    Disc Serial: SCES-01237

    Ringcode Information:
        Mastering Code (laser branded/etched): Sony DADC    A0100250251-0101    73
        Mastering SID Code: IFPI L553
        Data-Side Mould SID Code: IFPI 943C
        Label-Side Mould SID Code: (REQUIRED, IF EXISTS)
        Additional Mould: (REQUIRED, IF EXISTS)
        Toolstamp or Mastering Code (engraved/stamped): A17
    Barcode: 7 11719 79382 3
    EXE/Build Date: 1998-06-18
    Error Count: 0
    Comments: Internal Disc Serial: TEKKEN3\SCES-01237
    Contents: (OPTIONAL)

Version and Editions:
    Version: (REQUIRED, IF EXISTS)
    Edition/Release: Platinium

EDC:
    EDC: Yes

Extras:
    Primary Volume Descriptor (PVD):

0320 : 20 20 20 20 20 20 20 20  20 20 20 20 20 31 39 39                199
0330 : 38 30 36 31 39 30 31 31  30 30 30 30 30 24 30 30   8061901100000$00
0340 : 30 30 30 30 30 30 30 30  30 30 30 30 30 30 00 30   00000000000000.0
0350 : 30 30 30 30 30 30 30 30  30 30 30 30 30 30 30 00   000000000000000.
0360 : 30 30 30 30 30 30 30 30  30 30 30 30 30 30 30 30   0000000000000000
0370 : 00 01 00 00 00 00 00 00  00 00 00 00 00 00 00 00   ................

Copy Protection:
    Anti-modchip: No
    LibCrypt: No

Tracks and Write Offsets:
    DAT:

<rom name="TEKKEN3 (Track 1).bin" size="632530416" crc="7eb2ae00" md5="f50622c42b3a579a16d140e587456c1c" sha1="d5ed4d66cd09fd2be5e67f8de33372d36137496f" />
<rom name="TEKKEN3 (Track 2).bin" size="27701856" crc="14873754" md5="4455285502a074de487f7a0e74bdead7" sha1="9ce575e04e658eac132ed08853f361cda783c58f" />
<rom name="TEKKEN3 (Track 3).bin" size="28042896" crc="94bdc3b5" md5="f802f619ec162e432b50433a68ba9ef5" sha1="fbb229043260c6f03c82314d0d2fa75a875db8fa" />

    Cuesheet:

FILE "TEKKEN3 (Track 1).bin" BINARY
  TRACK 01 MODE2/2352
    INDEX 01 00:00:00
FILE "TEKKEN3 (Track 2).bin" BINARY
  TRACK 02 AUDIO
    INDEX 00 00:00:00
    INDEX 01 00:02:00
FILE "TEKKEN3 (Track 3).bin" BINARY
  TRACK 03 AUDIO
    INDEX 00 00:00:00
    INDEX 01 00:02:00

    Write Offset: -647

As you can see, mine as also the alternate audio track checksum like the Jackal's one.
The checksum of the audio tracks is different than the other one.

I think it's an interesting verification.

CS