Disc 1
Page: http://redump.org/disc/43323/
Log: https://cdn.discordapp.com/attachments/ … LAYDISC.7z

Common Disc Info:
    Title: Diablo II
    Foreign Title (Non-latin): (OPTIONAL)
    Disc Number / Letter: (OPTIONAL)
    Disc Title: Play Disc
    System: IBM PC Compatible
    Media Type: CD-ROM
    Category: Games
    Region: USA
    Languages: Klingon (CHANGE THIS)
    Disc Serial: S7114021

    Ringcode Information:
        Mastering Code (laser branded/etched): TECHNICOLOR    C1.1   178326-01    S7114021
        Mastering SID Code: IFPI L891
        Data-Side Mould SID Code: IFPI 2T10
        Label-Side Mould SID Code: (REQUIRED, IF EXISTS)
        Additional Mould: TECHNICOLOR/CA
        Toolstamp or Mastering Code (engraved/stamped): (REQUIRED, IF EXISTS)
    Barcode: (OPTIONAL)
    Error Count: 1
    Comments: [T:ISBN] (OPTIONAL)
    Contents: (OPTIONAL)

Version and Editions:
    Version: 1.03
    Edition/Release: Battle Chest

Extras:
    Primary Volume Descriptor (PVD):

0320 : 20 20 20 20 20 20 20 20  20 20 20 20 20 32 30 30                200
0330 : 30 31 30 31 32 31 38 31  37 33 36 30 30 00 32 30   0101218173600.20
0340 : 30 30 31 30 31 33 31 37  31 37 33 31 30 30 00 00   00101317173100..
0350 : 00 00 00 00 00 00 00 00  00 00 00 00 00 00 00 00   ................
0360 : 00 00 00 00 00 00 00 00  00 00 00 00 00 00 00 00   ................
0370 : 00 01 00 00 00 00 00 00  00 00 00 00 00 00 00 00   ................

Copy Protection:
    Copy Protection: 
    SubIntention Data (SecuROM/LibCrypt):

MSF: 00:01:74 Q-Data: 410100 37:10:45 00 00:02:00 0793
MSF: 00:02:00 Q-Data: 410101 00:00:00 00 00:02:01 3813
MSF: 00:02:01 Q-Data: 410101 00:00:01 00 00:02:02 a221
MSF: 00:02:02 Q-Data: 410101 00:00:02 00 00:02:03 5cd2
MSF: 00:02:03 Q-Data: 410101 00:00:03 00 00:02:04 8664
MSF: 00:02:04 Q-Data: 410101 00:00:04 00 00:02:05 f191
MSF: 00:02:05 Q-Data: 410101 00:00:05 00 00:02:06 6ba3
MSF: 00:02:06 Q-Data: 410101 00:00:06 00 00:02:07 9550
MSF: 00:02:07 Q-Data: 410101 00:08:06 00 00:12:07 1551
MSF: 01:08:50 Q-Data: 410101 01:06:50 00 01:08:51 9aaf
MSF: 01:08:51 Q-Data: 410101 01:06:51 00 01:08:52 009d
MSF: 01:08:52 Q-Data: 410101 01:06:52 00 01:08:53 fe6e
MSF: 01:08:53 Q-Data: 410101 01:06:53 00 01:08:54 24d8
MSF: 01:08:54 Q-Data: 410101 01:06:54 00 01:08:55 532d
MSF: 01:08:55 Q-Data: 410101 01:06:55 00 01:08:56 c91f
MSF: 01:08:56 Q-Data: 410101 01:06:56 00 01:08:57 37ec
MSF: 01:08:57 Q-Data: 410101 01:06:57 00 01:08:58 6c52
MSF: 01:08:58 Q-Data: 410101 05:06:57 00 21:08:58 ec53
MSF: 01:19:17 Q-Data: 410101 01:17:17 00 01:19:18 5a98
MSF: 01:19:18 Q-Data: 410101 01:17:18 00 01:19:19 2f40
MSF: 01:19:19 Q-Data: 410101 01:17:19 00 01:19:20 226b
MSF: 01:19:20 Q-Data: 410101 01:17:20 00 01:19:21 96d8
MSF: 01:19:21 Q-Data: 410101 01:17:21 00 01:19:22 0cea
MSF: 01:19:22 Q-Data: 410101 01:17:22 00 01:19:23 f219
MSF: 01:19:23 Q-Data: 410101 01:17:23 00 01:19:24 28af
MSF: 01:19:24 Q-Data: 410101 01:17:24 00 01:19:25 5f5a
MSF: 01:19:25 Q-Data: 410101 11:17:24 00 09:19:25 df5b
MSF: 02:04:02 Q-Data: 410101 02:02:02 00 02:04:03 73b7
MSF: 02:04:03 Q-Data: 410101 02:02:03 00 02:04:04 a901
MSF: 02:04:04 Q-Data: 410101 02:02:04 00 02:04:05 def4
MSF: 02:04:05 Q-Data: 410101 02:02:05 00 02:04:06 44c6
MSF: 02:04:06 Q-Data: 410101 02:02:06 00 02:04:07 ba35
MSF: 02:04:07 Q-Data: 410101 02:02:07 00 02:04:08 e18b
MSF: 02:04:08 Q-Data: 410101 02:02:08 00 02:04:09 9453
MSF: 02:04:09 Q-Data: 410101 02:02:09 00 02:04:10 bd1a
MSF: 02:04:10 Q-Data: 410101 02:12:09 00 02:0c:10 3d1b
MSF: 02:29:45 Q-Data: 410101 02:27:45 00 02:29:46 1bd9
MSF: 02:29:46 Q-Data: 410101 02:27:46 00 02:29:47 e52a
MSF: 02:29:47 Q-Data: 410101 02:27:47 00 02:29:48 be94
MSF: 02:29:48 Q-Data: 410101 02:27:48 00 02:29:49 cb4c
MSF: 02:29:49 Q-Data: 410101 02:27:49 00 02:29:50 e205
MSF: 02:29:50 Q-Data: 410101 02:27:50 00 02:29:51 5e02
MSF: 02:29:51 Q-Data: 410101 02:27:51 00 02:29:52 c430
MSF: 02:29:52 Q-Data: 410101 02:27:52 00 02:29:53 3ac3
MSF: 02:29:53 Q-Data: 410101 02:23:52 00 02:09:53 bac2
MSF: 02:30:28 Q-Data: 410101 02:28:28 00 02:30:29 c2de
MSF: 02:30:29 Q-Data: 410101 02:28:29 00 02:30:30 eb97
MSF: 02:30:30 Q-Data: 410101 02:28:30 00 02:30:31 5790
MSF: 02:30:31 Q-Data: 410101 02:28:31 00 02:30:32 cda2
MSF: 02:30:32 Q-Data: 410101 02:28:32 00 02:30:33 3351
MSF: 02:30:33 Q-Data: 410101 02:28:33 00 02:30:34 e9e7
MSF: 02:30:34 Q-Data: 410101 02:28:34 00 02:30:35 9e12
MSF: 02:30:35 Q-Data: 410101 02:28:35 00 02:30:36 0420
MSF: 02:30:36 Q-Data: 410101 0a:28:35 00 12:30:36 8421
MSF: 02:58:07 Q-Data: 410101 02:56:07 00 02:58:08 dc6c
MSF: 02:58:08 Q-Data: 410101 02:56:08 00 02:58:09 a9b4
MSF: 02:58:09 Q-Data: 410101 02:56:09 00 02:58:10 80fd
MSF: 02:58:10 Q-Data: 410101 02:56:10 00 02:58:11 3cfa
MSF: 02:58:11 Q-Data: 410101 02:56:11 00 02:58:12 a6c8
MSF: 02:58:12 Q-Data: 410101 02:56:12 00 02:58:13 583b
MSF: 02:58:13 Q-Data: 410101 02:56:13 00 02:58:14 828d
MSF: 02:58:14 Q-Data: 410101 02:56:14 00 02:58:15 f578
MSF: 02:58:15 Q-Data: 410101 0a:56:14 00 12:58:15 7579
MSF: 03:05:06 Q-Data: 410101 03:03:06 00 03:05:07 43f5
MSF: 03:05:07 Q-Data: 410101 03:03:07 00 03:05:08 184b
MSF: 03:05:08 Q-Data: 410101 03:03:08 00 03:05:09 6d93
MSF: 03:05:09 Q-Data: 410101 03:03:09 00 03:05:10 44da
MSF: 03:05:10 Q-Data: 410101 03:03:10 00 03:05:11 f8dd
MSF: 03:05:11 Q-Data: 410101 03:03:11 00 03:05:12 62ef
MSF: 03:05:12 Q-Data: 410101 03:03:12 00 03:05:13 9c1c
MSF: 03:05:13 Q-Data: 410101 03:03:13 00 03:05:14 46aa
MSF: 03:05:14 Q-Data: 410101 13:03:13 00 0b:05:14 c6ab
MSF: 03:20:14 Q-Data: 410101 03:18:14 00 03:20:15 116a
MSF: 03:20:15 Q-Data: 410101 03:18:15 00 03:20:16 8b58
MSF: 03:20:16 Q-Data: 410101 03:18:16 00 03:20:17 75ab
MSF: 03:20:17 Q-Data: 410101 03:18:17 00 03:20:18 2e15
MSF: 03:20:18 Q-Data: 410101 03:18:18 00 03:20:19 5bcd
MSF: 03:20:19 Q-Data: 410101 03:18:19 00 03:20:20 56e6
MSF: 03:20:20 Q-Data: 410101 03:18:20 00 03:20:21 e255
MSF: 03:20:21 Q-Data: 410101 03:18:21 00 03:20:22 7867
MSF: 03:20:22 Q-Data: 410101 13:18:21 00 0b:20:22 f866
MSF: 03:40:69 Q-Data: 410101 03:38:69 00 03:40:70 2fb7
MSF: 03:40:70 Q-Data: 410101 03:38:70 00 03:40:71 93b0
MSF: 03:40:71 Q-Data: 410101 03:38:71 00 03:40:72 0982
MSF: 03:40:72 Q-Data: 410101 03:38:72 00 03:40:73 f771
MSF: 03:40:73 Q-Data: 410101 03:38:73 00 03:40:74 2dc7
MSF: 03:40:74 Q-Data: 410101 03:38:74 00 03:41:00 4731
MSF: 03:41:00 Q-Data: 410101 03:39:00 00 03:41:01 8630
MSF: 03:41:01 Q-Data: 410101 03:39:01 00 03:41:02 1c02
MSF: 03:41:02 Q-Data: 410101 03:39:11 00 03:41:0a 9c03
MSF: 04:02:25 Q-Data: 410101 04:00:25 00 04:02:26 5a73
MSF: 04:02:26 Q-Data: 410101 04:00:26 00 04:02:27 a480
MSF: 04:02:27 Q-Data: 410101 04:00:27 00 04:02:28 ff3e
MSF: 04:02:28 Q-Data: 410101 04:00:28 00 04:02:29 8ae6
MSF: 04:02:29 Q-Data: 410101 04:00:29 00 04:02:30 a3af
MSF: 04:02:30 Q-Data: 410101 04:00:30 00 04:02:31 1fa8
MSF: 04:02:31 Q-Data: 410101 04:00:31 00 04:02:32 859a
MSF: 04:02:32 Q-Data: 410101 04:00:32 00 04:02:33 7b69
MSF: 04:02:33 Q-Data: 410101 04:01:32 00 04:82:33 fb68

Tracks and Write Offsets:
    DAT:

<rom name="PLAYDISC.bin" size="706230336" crc="fcde2b45" md5="4e21de03131354bc0493cf982060c0ae" sha1="6774ccdf7b94535c9c36ca0cb3c7c4a2da353c42" />

    Cuesheet:

FILE "PLAYDISC.bin" BINARY
  TRACK 01 MODE1/2352
    INDEX 01 00:00:00

    Write Offset: -59

Disc 2
Page: http://redump.org/disc/43322/
Log: https://cdn.discordapp.com/attachments/ … INSTALL.7z

Common Disc Info:
    Title: Diablo II
    Foreign Title (Non-latin): (OPTIONAL)
    Disc Number / Letter: (OPTIONAL)
    Disc Title: Install Disc
    System: IBM PC Compatible
    Media Type: CD-ROM
    Category: Games
    Region: USA
    Languages: Klingon (CHANGE THIS)
    Disc Serial: S7114011

    Ringcode Information:
        Mastering Code (laser branded/etched): TECHNICOLOR    C1.1 178325-03    S7114011
        Mastering SID Code: IFPI L891
        Data-Side Mould SID Code: IFPI 8024
        Label-Side Mould SID Code: (REQUIRED, IF EXISTS)
        Additional Mould: TECHNICOLOR/CA
        Toolstamp or Mastering Code (engraved/stamped): (REQUIRED, IF EXISTS)
    Barcode: (OPTIONAL)
    Error Count: 0
    Comments: [T:ISBN] (OPTIONAL)
    Contents: (OPTIONAL)

Version and Editions:
    Version: 1.03
    Edition/Release: Battle Chest

Extras:
    Primary Volume Descriptor (PVD):

0320 : 20 20 20 20 20 20 20 20  20 20 20 20 20 32 30 30                200
0330 : 30 31 30 31 30 32 31 32  30 31 37 30 30 00 32 30   0101021201700.20
0340 : 30 30 31 30 31 33 31 36  30 30 31 32 30 30 00 00   00101316001200..
0350 : 00 00 00 00 00 00 00 00  00 00 00 00 00 00 00 00   ................
0360 : 00 00 00 00 00 00 00 00  00 00 00 00 00 00 00 00   ................
0370 : 00 01 00 00 00 00 00 00  00 00 00 00 00 00 00 00   ................

Copy Protection:
    Copy Protection: 

Tracks and Write Offsets:
    DAT:

<rom name="INSTALL.bin" size="684617808" crc="1b692c70" md5="556c6157dee5668874a5598fe7d2aa14" sha1="52c8cf1bfa95f82f9f6c7a85a7207cb53b51baba" />

    Cuesheet:

FILE "INSTALL.bin" BINARY
  TRACK 01 MODE1/2352
    INDEX 01 00:00:00

    Write Offset: -22

Disc 3
Page: http://redump.org/disc/2096/
Log: https://cdn.discordapp.com/attachments/ … EMATICS.7z

Common Disc Info:
    Title: Diablo II
    Foreign Title (Non-latin): (OPTIONAL)
    Disc Number / Letter: (OPTIONAL)
    Disc Title: Cinematics Disc
    System: IBM PC Compatible
    Media Type: CD-ROM
    Category: Games
    Region: USA
    Languages: Klingon (CHANGE THIS)
    Disc Serial: S7114030

    Ringcode Information:
        Mastering Code (laser branded/etched): S7114030   Technicolor   C1.1   162863-01
        Mastering SID Code: IFPI L891
        Data-Side Mould SID Code: IFPI 2T08
        Label-Side Mould SID Code: (REQUIRED, IF EXISTS)
        Additional Mould: NIMBUS/CA
        Toolstamp or Mastering Code (engraved/stamped): (REQUIRED, IF EXISTS)
    Barcode: (OPTIONAL)
    Error Count: 0
    Comments: [T:ISBN] (OPTIONAL)
    Contents: (OPTIONAL)

Version and Editions:
    Version: 1.0
    Edition/Release: Battle Chest

Extras:
    Primary Volume Descriptor (PVD):

0320 : 20 20 20 20 20 20 20 20  20 20 20 20 20 32 30 30                200
0330 : 30 30 35 32 32 30 35 34  32 34 38 30 30 00 32 30   0052205424800.20
0340 : 30 30 30 35 32 32 30 35  34 33 32 38 30 30 00 00   00052205432800..
0350 : 00 00 00 00 00 00 00 00  00 00 00 00 00 00 00 00   ................
0360 : 00 00 00 00 00 00 00 00  00 00 00 00 00 00 00 00   ................
0370 : 00 01 00 00 00 00 00 00  00 00 00 00 00 00 00 00   ................

Copy Protection:
    Copy Protection: 

Tracks and Write Offsets:
    DAT:

<rom name="CINEMATICS.bin" size="509302080" crc="d509421e" md5="4c33974654fa78e246a9e655b0c22cbc" sha1="3c229aee28d4090046376f349cd4129466bf901e" />

    Cuesheet:

FILE "CINEMATICS.bin" BINARY
  TRACK 01 MODE1/2352
    INDEX 01 00:00:00

    Write Offset: -22

Disc 4
Page: http://redump.org/disc/5289/
Log: https://cdn.discordapp.com/attachments/ … PANSION.7z

Common Disc Info:
    Title: Diablo II: Lord of Destruction
    Foreign Title (Non-latin): (OPTIONAL)
    Disc Number / Letter: (OPTIONAL)
    Disc Title: Expansion Set
    System: IBM PC Compatible
    Media Type: CD-ROM
    Category: Add-Ons
    Region: USA
    Languages: Klingon (CHANGE THIS)
    Disc Serial: S7122510

    Ringcode Information:
        Mastering Code (laser branded/etched): (176340) S7122510 06    TECHNICOLOR
        Mastering SID Code: IFPI L891
        Data-Side Mould SID Code: IFPI 2T03
        Label-Side Mould SID Code: (REQUIRED, IF EXISTS)
        Additional Mould: NIMBUS/CA
        Toolstamp or Mastering Code (engraved/stamped): (REQUIRED, IF EXISTS)
    Barcode: (OPTIONAL)
    Error Count: 1
    Comments: [T:ISBN] (OPTIONAL)
    Contents: (OPTIONAL)

Version and Editions:
    Version: 1.07
    Edition/Release: Battle Chest

Extras:
    Primary Volume Descriptor (PVD):

0320 : 20 20 20 20 20 20 20 20  20 20 20 20 20 32 30 30                200
0330 : 31 30 35 32 33 31 34 31  35 34 37 30 30 00 32 30   1052314154700.20
0340 : 30 31 30 35 32 33 31 34  31 36 33 38 30 30 00 00   01052314163800..
0350 : 00 00 00 00 00 00 00 00  00 00 00 00 00 00 00 00   ................
0360 : 00 00 00 00 00 00 00 00  00 00 00 00 00 00 00 00   ................
0370 : 00 01 00 00 00 00 00 00  00 00 00 00 00 00 00 00   ................

Copy Protection:
    Copy Protection: 
    SubIntention Data (SecuROM/LibCrypt):

MSF: 00:01:74 Q-Data: 410100 37:10:45 00 00:02:00 0793
MSF: 00:02:00 Q-Data: 410101 00:00:00 00 00:02:01 3813
MSF: 00:02:01 Q-Data: 410101 00:00:01 00 00:02:02 a221
MSF: 00:02:02 Q-Data: 410101 00:00:02 00 00:02:03 5cd2
MSF: 00:02:03 Q-Data: 410101 00:00:03 00 00:02:04 8664
MSF: 00:02:04 Q-Data: 410101 00:00:04 00 00:02:05 f191
MSF: 00:02:05 Q-Data: 410101 00:00:05 00 00:02:06 6ba3
MSF: 00:02:06 Q-Data: 410101 00:00:06 00 00:02:07 9550
MSF: 00:02:07 Q-Data: 410101 00:08:06 00 00:12:07 1551
MSF: 01:08:50 Q-Data: 410101 01:06:50 00 01:08:51 9aaf
MSF: 01:08:51 Q-Data: 410101 01:06:51 00 01:08:52 009d
MSF: 01:08:52 Q-Data: 410101 01:06:52 00 01:08:53 fe6e
MSF: 01:08:53 Q-Data: 410101 01:06:53 00 01:08:54 24d8
MSF: 01:08:54 Q-Data: 410101 01:06:54 00 01:08:55 532d
MSF: 01:08:55 Q-Data: 410101 01:06:55 00 01:08:56 c91f
MSF: 01:08:56 Q-Data: 410101 01:06:56 00 01:08:57 37ec
MSF: 01:08:57 Q-Data: 410101 01:06:57 00 01:08:58 6c52
MSF: 01:08:58 Q-Data: 410101 05:06:57 00 21:08:58 ec53
MSF: 01:28:68 Q-Data: 410101 01:26:68 00 01:28:69 10d9
MSF: 01:28:69 Q-Data: 410101 01:26:69 00 01:28:70 3990
MSF: 01:28:70 Q-Data: 410101 01:26:70 00 01:28:71 8597
MSF: 01:28:71 Q-Data: 410101 01:26:71 00 01:28:72 1fa5
MSF: 01:28:72 Q-Data: 410101 01:26:72 00 01:28:73 e156
MSF: 01:28:73 Q-Data: 410101 01:26:73 00 01:28:74 3be0
MSF: 01:28:74 Q-Data: 410101 01:26:74 00 01:29:00 5116
MSF: 01:29:00 Q-Data: 410101 01:27:00 00 01:29:01 9017
MSF: 01:29:01 Q-Data: 410101 01:27:01 00 01:29:81 1016
MSF: 01:41:27 Q-Data: 410101 01:39:27 00 01:41:28 5298
MSF: 01:41:28 Q-Data: 410101 01:39:28 00 01:41:29 2740
MSF: 01:41:29 Q-Data: 410101 01:39:29 00 01:41:30 0e09
MSF: 01:41:30 Q-Data: 410101 01:39:30 00 01:41:31 b20e
MSF: 01:41:31 Q-Data: 410101 01:39:31 00 01:41:32 283c
MSF: 01:41:32 Q-Data: 410101 01:39:32 00 01:41:33 d6cf
MSF: 01:41:33 Q-Data: 410101 01:39:33 00 01:41:34 0c79
MSF: 01:41:34 Q-Data: 410101 01:39:34 00 01:41:35 7b8c
MSF: 01:41:35 Q-Data: 410101 01:29:34 00 01:49:35 fb8d
MSF: 01:42:46 Q-Data: 410101 01:40:46 00 01:42:47 2471
MSF: 01:42:47 Q-Data: 410101 01:40:47 00 01:42:48 7fcf
MSF: 01:42:48 Q-Data: 410101 01:40:48 00 01:42:49 0a17
MSF: 01:42:49 Q-Data: 410101 01:40:49 00 01:42:50 235e
MSF: 01:42:50 Q-Data: 410101 01:40:50 00 01:42:51 9f59
MSF: 01:42:51 Q-Data: 410101 01:40:51 00 01:42:52 056b
MSF: 01:42:52 Q-Data: 410101 01:40:52 00 01:42:53 fb98
MSF: 01:42:53 Q-Data: 410101 01:40:53 00 01:42:54 212e
MSF: 01:42:54 Q-Data: 410101 00:40:53 00 81:42:54 a12f
MSF: 02:39:31 Q-Data: 410101 02:37:31 00 02:39:32 a8bd
MSF: 02:39:32 Q-Data: 410101 02:37:32 00 02:39:33 564e
MSF: 02:39:33 Q-Data: 410101 02:37:33 00 02:39:34 8cf8
MSF: 02:39:34 Q-Data: 410101 02:37:34 00 02:39:35 fb0d
MSF: 02:39:35 Q-Data: 410101 02:37:35 00 02:39:36 613f
MSF: 02:39:36 Q-Data: 410101 02:37:36 00 02:39:37 9fcc
MSF: 02:39:37 Q-Data: 410101 02:37:37 00 02:39:38 c472
MSF: 02:39:38 Q-Data: 410101 02:37:38 00 02:39:39 b1aa
MSF: 02:39:39 Q-Data: 410101 02:35:38 00 02:79:39 31ab
MSF: 02:41:29 Q-Data: 410101 02:39:29 00 02:41:30 8fdb
MSF: 02:41:30 Q-Data: 410101 02:39:30 00 02:41:31 33dc
MSF: 02:41:31 Q-Data: 410101 02:39:31 00 02:41:32 a9ee
MSF: 02:41:32 Q-Data: 410101 02:39:32 00 02:41:33 571d
MSF: 02:41:33 Q-Data: 410101 02:39:33 00 02:41:34 8dab
MSF: 02:41:34 Q-Data: 410101 02:39:34 00 02:41:35 fa5e
MSF: 02:41:35 Q-Data: 410101 02:39:35 00 02:41:36 606c
MSF: 02:41:36 Q-Data: 410101 02:39:36 00 02:41:37 9e9f
MSF: 02:41:37 Q-Data: 410101 02:39:34 00 02:41:77 1e9e
MSF: 02:55:21 Q-Data: 410101 02:53:21 00 02:55:22 a928
MSF: 02:55:22 Q-Data: 410101 02:53:22 00 02:55:23 57db
MSF: 02:55:23 Q-Data: 410101 02:53:23 00 02:55:24 8d6d
MSF: 02:55:24 Q-Data: 410101 02:53:24 00 02:55:25 fa98
MSF: 02:55:25 Q-Data: 410101 02:53:25 00 02:55:26 60aa
MSF: 02:55:26 Q-Data: 410101 02:53:26 00 02:55:27 9e59
MSF: 02:55:27 Q-Data: 410101 02:53:27 00 02:55:28 c5e7
MSF: 02:55:28 Q-Data: 410101 02:53:28 00 02:55:29 b03f
MSF: 02:55:29 Q-Data: 410101 02:43:28 00 02:5d:29 303e
MSF: 02:56:06 Q-Data: 410101 02:54:06 00 02:56:07 2f9d
MSF: 02:56:07 Q-Data: 410101 02:54:07 00 02:56:08 7423
MSF: 02:56:08 Q-Data: 410101 02:54:08 00 02:56:09 01fb
MSF: 02:56:09 Q-Data: 410101 02:54:09 00 02:56:10 28b2
MSF: 02:56:10 Q-Data: 410101 02:54:10 00 02:56:11 94b5
MSF: 02:56:11 Q-Data: 410101 02:54:11 00 02:56:12 0e87
MSF: 02:56:12 Q-Data: 410101 02:54:12 00 02:56:13 f074
MSF: 02:56:13 Q-Data: 410101 02:54:13 00 02:56:14 2ac2
MSF: 02:56:14 Q-Data: 410101 22:54:13 00 06:56:14 aac3
MSF: 02:58:64 Q-Data: 410101 02:56:64 00 02:58:65 9669
MSF: 02:58:65 Q-Data: 410101 02:56:65 00 02:58:66 0c5b
MSF: 02:58:66 Q-Data: 410101 02:56:66 00 02:58:67 f2a8
MSF: 02:58:67 Q-Data: 410101 02:56:67 00 02:58:68 a916
MSF: 02:58:68 Q-Data: 410101 02:56:68 00 02:58:69 dcce
MSF: 02:58:69 Q-Data: 410101 02:56:69 00 02:58:70 f587
MSF: 02:58:70 Q-Data: 410101 02:56:70 00 02:58:71 4980
MSF: 02:58:71 Q-Data: 410101 02:56:71 00 02:58:72 d3b2
MSF: 02:58:72 Q-Data: 410101 02:76:71 00 02:5c:72 53b3
MSF: 04:05:62 Q-Data: 410101 04:03:62 00 04:05:63 63d9
MSF: 04:05:63 Q-Data: 410101 04:03:63 00 04:05:64 b96f
MSF: 04:05:64 Q-Data: 410101 04:03:64 00 04:05:65 ce9a
MSF: 04:05:65 Q-Data: 410101 04:03:65 00 04:05:66 54a8
MSF: 04:05:66 Q-Data: 410101 04:03:66 00 04:05:67 aa5b
MSF: 04:05:67 Q-Data: 410101 04:03:67 00 04:05:68 f1e5
MSF: 04:05:68 Q-Data: 410101 04:03:68 00 04:05:69 843d
MSF: 04:05:69 Q-Data: 410101 04:03:69 00 04:05:70 ad74
MSF: 04:05:70 Q-Data: 410101 04:13:69 00 04:0d:70 2d75

Tracks and Write Offsets:
    DAT:

<rom name="EXPANSION.bin" size="662450208" crc="17505510" md5="ed2cfd1120fe58e8c15af18c47c89881" sha1="38553202170e9e66529914e010b5740b07850eb4" />

    Cuesheet:

FILE "EXPANSION.bin" BINARY
  TRACK 01 MODE1/2352
    INDEX 01 00:00:00

    Write Offset: -59