1 (edited by NovaAurora 2020-10-20 19:20:57)

Disc 1
Page: http://redump.org/disc/52956/
Log: https://cdn.discordapp.com/attachments/ … ihilati.7z

Common Disc Info:
    Title: Total Annihilation
    Foreign Title (Non-latin): (OPTIONAL)
    Disc Number / Letter: 1
    Disc Title: (OPTIONAL)
    System: IBM PC Compatible
    Media Type: CD-ROM
    Category: Games
    Region: USA
    Languages: Klingon (CHANGE THIS)
    Disc Serial: 04-00000H1799

    Ringcode Information:
        Mastering Code (laser branded/etched): FUTURE MEDIA \ CA   FM 14396 (04-00000H1799//GT0001)
        Mastering SID Code: IFPI LG32
        Data-Side Mould SID Code: IFPI 3V06
        Label-Side Mould SID Code: (REQUIRED, IF EXISTS)
        Additional Mould: (REQUIRED, IF EXISTS)
        Toolstamp or Mastering Code (engraved/stamped): (REQUIRED, IF EXISTS)
    Barcode: 7 42725 60356 1
    Error Count: 225
    Comments: ISBN: 1-56893-416-5
    Contents: (OPTIONAL)

Version and Editions:
    Version: (REQUIRED, IF EXISTS)
    Edition/Release: Rerelease

Extras:
    Primary Volume Descriptor (PVD):

0320 : 20 20 20 20 20 20 20 20  20 20 20 20 20 31 39 39                199
0330 : 38 30 39 30 38 31 31 33  35 31 32 30 30 00 31 39   8090811351200.19
0340 : 39 38 30 39 30 38 31 31  33 35 31 32 30 30 00 32   98090811351200.2
0350 : 30 30 38 30 39 30 35 31  31 33 35 31 32 30 30 00   008090511351200.
0360 : 31 39 39 38 30 39 30 38  31 31 33 35 31 32 30 30   1998090811351200
0370 : 00 01 00 00 00 00 00 00  00 00 00 00 00 00 00 00   ................

Copy Protection:
    Copy Protection: 

Tracks and Write Offsets:
    DAT:

<rom name="Total Annihilati (Track 01).bin" size="371110320" crc="8e013f91" md5="5ae1783d900a26a712632dbccd003777" sha1="de45dc9145865375ace76e48a67924073c00a8c6" />
<rom name="Total Annihilati (Track 02).bin" size="36333696" crc="c864a589" md5="fdc85fcb34f0c7ed44f00589564e1314" sha1="b585befb2630ef750e48a741d6716a975aecef37" />
<rom name="Total Annihilati (Track 03).bin" size="13361712" crc="3a35f796" md5="00339b699633e22fc7adf31d55ff1252" sha1="0d8edca0f225a4a095fb78664a2a697b2df201c9" />
<rom name="Total Annihilati (Track 04).bin" size="27699504" crc="4f4673cc" md5="32355afcd3173a605c5d28f3de34f504" sha1="81b9de395663d7f8dbfa8df95900a3b7afd893bc" />
<rom name="Total Annihilati (Track 05).bin" size="21473760" crc="653b75c2" md5="8dfc56a47054ca95d26a5fd11e5b8258" sha1="911dd4d3a3cc5ecd544b4624af588b6a3d168ebb" />
<rom name="Total Annihilati (Track 06).bin" size="28527408" crc="384b7119" md5="c3e006503f8fc4f2664804690659f14a" sha1="4ab8755b8878499fbf2f8e4966303f6ebc7a3ec1" />
<rom name="Total Annihilati (Track 07).bin" size="26008416" crc="7384a6d2" md5="8b3d72c9ba5f38c3502352cab44dd8ad" sha1="7b2612cdf40d6e1230b95779b566c4ec646da9d9" />
<rom name="Total Annihilati (Track 08).bin" size="24712464" crc="323fbf4a" md5="b6cd4ac76cb9377d0d5cdee7b479eb79" sha1="d92cc7d5954492574a6be2093200b01e13fb7f75" />
<rom name="Total Annihilati (Track 09).bin" size="11371920" crc="b696e34e" md5="03f5066fc9ed9d36e7ee8abf5120cecb" sha1="33cdcb88f516b82263651f3075c396eaf9dadebc" />
<rom name="Total Annihilati (Track 10).bin" size="12573792" crc="976c6b54" md5="0cb23693b42bc912a36182379e986e7d" sha1="d9547c31c67dc56298da089d6c7801ec03e44642" />
<rom name="Total Annihilati (Track 11).bin" size="27626592" crc="a0d5e792" md5="b0cb52a3541222a8392f2a257f7bdc9c" sha1="e23aa6d60d5d99f332c3369da310b31f426791e8" />
<rom name="Total Annihilati (Track 12).bin" size="23983344" crc="73acc09f" md5="7716649e3ccf7054bafbfd2cf49debd2" sha1="b61b18301cc9b85c75fb9e11fa1e74089f37de98" />
<rom name="Total Annihilati (Track 13).bin" size="26744592" crc="c8b1bf44" md5="b4afe2acf78076516cc4c6c9ebc421fe" sha1="a580686ad405b7781cf76a194022b3dc46f19b43" />
<rom name="Total Annihilati (Track 14).bin" size="16701552" crc="f6b77a08" md5="715e5af1f01c57d72eb9c6ac226319ae" sha1="73000efcd5f4cf746b857184a1eb9622ab2c53af" />
<rom name="Total Annihilati (Track 15).bin" size="16031232" crc="e6344cac" md5="7c5d70758fc1d527b0baffb85d2c5ffd" sha1="747587657e2254e1328fa1ec018dfc32c8f0aabc" />
<rom name="Total Annihilati (Track 16).bin" size="19356960" crc="581d8c56" md5="75df0aa1e2d8a2466129fe8aa4f98e15" sha1="3c27b79269eda0684eda2085f6074a8b85789b9b" />
<rom name="Total Annihilati (Track 17).bin" size="14086128" crc="9597e5cc" md5="986f8e46a398ec6839df7852504d6c6a" sha1="bfa4b34fb9d389208fe43928aea877c44cea5fc8" />

    Cuesheet:

FILE "Total Annihilati (Track 01).bin" BINARY
  TRACK 01 MODE1/2352
    INDEX 01 00:00:00
FILE "Total Annihilati (Track 02).bin" BINARY
  TRACK 02 AUDIO
    INDEX 00 00:00:00
    INDEX 01 00:03:00
FILE "Total Annihilati (Track 03).bin" BINARY
  TRACK 03 AUDIO
    INDEX 00 00:00:00
    INDEX 01 00:02:00
FILE "Total Annihilati (Track 04).bin" BINARY
  TRACK 04 AUDIO
    INDEX 00 00:00:00
    INDEX 01 00:02:00
FILE "Total Annihilati (Track 05).bin" BINARY
  TRACK 05 AUDIO
    INDEX 00 00:00:00
    INDEX 01 00:02:00
FILE "Total Annihilati (Track 06).bin" BINARY
  TRACK 06 AUDIO
    INDEX 00 00:00:00
    INDEX 01 00:02:00
FILE "Total Annihilati (Track 07).bin" BINARY
  TRACK 07 AUDIO
    INDEX 00 00:00:00
    INDEX 01 00:02:00
FILE "Total Annihilati (Track 08).bin" BINARY
  TRACK 08 AUDIO
    INDEX 00 00:00:00
    INDEX 01 00:02:00
FILE "Total Annihilati (Track 09).bin" BINARY
  TRACK 09 AUDIO
    INDEX 00 00:00:00
    INDEX 01 00:02:00
FILE "Total Annihilati (Track 10).bin" BINARY
  TRACK 10 AUDIO
    INDEX 00 00:00:00
    INDEX 01 00:02:00
FILE "Total Annihilati (Track 11).bin" BINARY
  TRACK 11 AUDIO
    INDEX 00 00:00:00
    INDEX 01 00:02:00
FILE "Total Annihilati (Track 12).bin" BINARY
  TRACK 12 AUDIO
    INDEX 00 00:00:00
    INDEX 01 00:02:00
FILE "Total Annihilati (Track 13).bin" BINARY
  TRACK 13 AUDIO
    INDEX 00 00:00:00
    INDEX 01 00:02:00
FILE "Total Annihilati (Track 14).bin" BINARY
  TRACK 14 AUDIO
    INDEX 00 00:00:00
    INDEX 01 00:02:00
FILE "Total Annihilati (Track 15).bin" BINARY
  TRACK 15 AUDIO
    INDEX 00 00:00:00
    INDEX 01 00:02:00
FILE "Total Annihilati (Track 16).bin" BINARY
  TRACK 16 AUDIO
    INDEX 00 00:00:00
    INDEX 01 00:02:00
FILE "Total Annihilati (Track 17).bin" BINARY
  TRACK 17 AUDIO
    INDEX 00 00:00:00
    INDEX 01 00:02:00

    Write Offset: -22

ADDED
Disc 2
Page: http://redump.org/disc/52957/
Log: https://cdn.discordapp.com/attachments/ … ilati_2.7z

Common Disc Info:
    Title: Total Annihilation
    Foreign Title (Non-latin): (OPTIONAL)
    Disc Number / Letter: 2
    Disc Title: (OPTIONAL)
    System: IBM PC Compatible
    Media Type: CD-ROM
    Category: Games
    Region: USA
    Languages: Klingon (CHANGE THIS)
    Disc Serial: 04-12523CD2

    Ringcode Information:
        Mastering Code (laser branded/etched): FUTURE MEDIA \ CA   FM 12897 (04-12523/GT0001)
        Mastering SID Code: IFPI LG32
        Data-Side Mould SID Code: IFPI 3V20
        Label-Side Mould SID Code: (REQUIRED, IF EXISTS)
        Additional Mould: (REQUIRED, IF EXISTS)
        Toolstamp or Mastering Code (engraved/stamped): (REQUIRED, IF EXISTS)
    Barcode: 7 42725 60356 1
    Error Count: 0
    Comments: ISBN: 1-56893-416-5
    Contents: (OPTIONAL)

Version and Editions:
    Version: (REQUIRED, IF EXISTS)
    Edition/Release: Rerelease

Extras:
    Primary Volume Descriptor (PVD):

0320 : 20 20 20 20 20 20 20 20  20 20 20 20 20 31 39 39                199
0330 : 37 30 39 30 34 31 31 33  36 33 32 30 30 00 31 39   7090411363200.19
0340 : 39 37 30 39 30 34 31 31  33 36 33 32 30 30 00 32   97090411363200.2
0350 : 30 30 37 30 39 30 32 31  31 33 36 33 32 30 30 00   007090211363200.
0360 : 31 39 39 37 30 39 30 34  31 31 33 36 33 32 30 30   1997090411363200
0370 : 00 01 00 00 00 00 00 00  00 00 00 00 00 00 00 00   ................

Copy Protection:
    Copy Protection: 

Tracks and Write Offsets:
    DAT:

<rom name="Total Annihilati (Track 01).bin" size="297530352" crc="70924f68" md5="301e21e8919c666d5c72847f3f4baf93" sha1="1ac566b6b2730726d68e110d8a581f6e4e92aad1" />
<rom name="Total Annihilati (Track 02).bin" size="36157296" crc="265bba95" md5="278a00ef94a341d76c1ccb9f5cfd5bf3" sha1="8d64f9d4c2bd8f53a7f10e445585544a616c4a7c" />
<rom name="Total Annihilati (Track 03).bin" size="13361712" crc="0af6704d" md5="afa3b89cf5e1416cc3ede4d64b4e1722" sha1="c6fba28e62dfeeeb76b7abb36b2ff09ef13bdf43" />
<rom name="Total Annihilati (Track 04).bin" size="27699504" crc="e76e3801" md5="2051d5d5204e6d724d4662b7c74cec3f" sha1="8e496e873fdb8873c565fc8bc120688d9b46172a" />
<rom name="Total Annihilati (Track 05).bin" size="21473760" crc="52844060" md5="e29c0bf65c5e97cfc29d4bed1dc1a546" sha1="69f39f1d7ea2513485f92dc733480e045f1e628e" />
<rom name="Total Annihilati (Track 06).bin" size="28527408" crc="2fa13115" md5="ce2be5e272ed15731e1db8229bce064d" sha1="af55561dad7e7ef5a0be547a8a214f7151b93b43" />
<rom name="Total Annihilati (Track 07).bin" size="26008416" crc="d83bb3cd" md5="625a349c944857ee4ed50c8ec7435edf" sha1="58004e82c27e98c7c60a91955507de578419865b" />
<rom name="Total Annihilati (Track 08).bin" size="24712464" crc="8df41829" md5="0306d1dea34ffc5992b984188db451e9" sha1="2b52550f335e270f14739400a3523b585b9e6936" />
<rom name="Total Annihilati (Track 09).bin" size="11371920" crc="10010def" md5="6db1c5862f14b70947b6cca43731922f" sha1="bf9a651f0b0b3afaaa437cbbc791b5a134cfb07f" />
<rom name="Total Annihilati (Track 10).bin" size="12573792" crc="b7de9cc1" md5="76e1d1d8693fd05c83c8c744dec37827" sha1="1a46fbfdcd5134775b5acb8f5b9b1a7f42451c4f" />
<rom name="Total Annihilati (Track 11).bin" size="27626592" crc="86fe987e" md5="964b6214de792c2183e61c1aba472b7f" sha1="fd6fa6a5e5e8c5ec835e87294a7b5fd1c5ba9500" />
<rom name="Total Annihilati (Track 12).bin" size="23983344" crc="18e08279" md5="74cca1c567f214ba5d6d21ad5002cbeb" sha1="4b1693f5b2c1380e47e537ca1c64564d78ab3ab0" />
<rom name="Total Annihilati (Track 13).bin" size="26744592" crc="2a2eff37" md5="e07884a12d7cd6a26f07b9902b6a8bad" sha1="51a9d59c0193b0519d6d85e9a8704dd6c1f59fbd" />
<rom name="Total Annihilati (Track 14).bin" size="16701552" crc="95160e55" md5="19622676e24127fcb63c8cf393a6f9e9" sha1="9c81c0423f8fdab8864c312fe56e7f4548b32788" />
<rom name="Total Annihilati (Track 15).bin" size="16031232" crc="93087b68" md5="9cdb6283b751977a3b67f35796fafc01" sha1="08361d8882b9ed6efd538e6a71032331ad39ecfe" />
<rom name="Total Annihilati (Track 16).bin" size="19356960" crc="86902904" md5="bd2fed9c31ac0a6cca6ab5cca232e3fa" sha1="b440996f06b3e6709bf24f484d666f1ea399e9ad" />
<rom name="Total Annihilati (Track 17).bin" size="14086128" crc="6b2c2ba2" md5="62067276b92ee19ed38d5ef0c78f4835" sha1="d534720ca6193ea3cdfd32abab4c7716608ae25d" />

    Cuesheet:

FILE "Total Annihilati (Track 01).bin" BINARY
  TRACK 01 MODE1/2352
    INDEX 01 00:00:00
FILE "Total Annihilati (Track 02).bin" BINARY
  TRACK 02 AUDIO
    INDEX 00 00:00:00
    INDEX 01 00:02:00
FILE "Total Annihilati (Track 03).bin" BINARY
  TRACK 03 AUDIO
    INDEX 00 00:00:00
    INDEX 01 00:02:00
FILE "Total Annihilati (Track 04).bin" BINARY
  TRACK 04 AUDIO
    INDEX 00 00:00:00
    INDEX 01 00:02:00
FILE "Total Annihilati (Track 05).bin" BINARY
  TRACK 05 AUDIO
    INDEX 00 00:00:00
    INDEX 01 00:02:00
FILE "Total Annihilati (Track 06).bin" BINARY
  TRACK 06 AUDIO
    INDEX 00 00:00:00
    INDEX 01 00:02:00
FILE "Total Annihilati (Track 07).bin" BINARY
  TRACK 07 AUDIO
    INDEX 00 00:00:00
    INDEX 01 00:02:00
FILE "Total Annihilati (Track 08).bin" BINARY
  TRACK 08 AUDIO
    INDEX 00 00:00:00
    INDEX 01 00:02:00
FILE "Total Annihilati (Track 09).bin" BINARY
  TRACK 09 AUDIO
    INDEX 00 00:00:00
    INDEX 01 00:02:00
FILE "Total Annihilati (Track 10).bin" BINARY
  TRACK 10 AUDIO
    INDEX 00 00:00:00
    INDEX 01 00:02:00
FILE "Total Annihilati (Track 11).bin" BINARY
  TRACK 11 AUDIO
    INDEX 00 00:00:00
    INDEX 01 00:02:00
FILE "Total Annihilati (Track 12).bin" BINARY
  TRACK 12 AUDIO
    INDEX 00 00:00:00
    INDEX 01 00:02:00
FILE "Total Annihilati (Track 13).bin" BINARY
  TRACK 13 AUDIO
    INDEX 00 00:00:00
    INDEX 01 00:02:00
FILE "Total Annihilati (Track 14).bin" BINARY
  TRACK 14 AUDIO
    INDEX 00 00:00:00
    INDEX 01 00:02:00
FILE "Total Annihilati (Track 15).bin" BINARY
  TRACK 15 AUDIO
    INDEX 00 00:00:00
    INDEX 01 00:02:00
FILE "Total Annihilati (Track 16).bin" BINARY
  TRACK 16 AUDIO
    INDEX 00 00:00:00
    INDEX 01 00:02:00
FILE "Total Annihilati (Track 17).bin" BINARY
  TRACK 17 AUDIO
    INDEX 00 00:00:00
    INDEX 01 00:02:00

    Write Offset: -22

I'm waiting for a previous dumper to redump disc 1 with a newer version of DIC because your dump has an error count of 225. In the meantime, can you redump it as well?

Salviamo la cultura videoludica italiana.

Dumped again, same number of errors:
https://cdn.discordapp.com/attachments/ … ilati_b.7z

Ok then, thank you. Just to be sure, I want an old dumper to redump disc 1 before adding yours. I'm gonna assume they used an older version of DIC.

Salviamo la cultura videoludica italiana.