1 (edited by Deev Eedeez 2020-09-25 13:18:24)

This is supposedly a NEW disc, not in any list of the redump db yet, I presume.

Redump files of the disc
Scans of the disc

Common Disc Info:
    Title: Digital Video free demo disc
    Foreign Title (Non-latin): 
    Disc Number / Letter: 
    Disc Title: 
    System: Philips CD-i Digital Video
    Media Type: CD-ROM
    Category: Demos
    Region: UK
    Languages: English
    Disc Serial: 

    Ringcode Information:
        Mastering Code (laser branded/etched): CD-I WORLD 1 10258231 01  &
        Mastering SID Code: 
        Data-Side Mould SID Code: A3
        Label-Side Mould SID Code:
        Additional Mould: 
        Toolstamp or Mastering Code (engraved/stamped): MADE IN U.K. BY PDO
    Barcode: 
    Error Count: 190575
    Comments: Came with CD-i World Magazine Issue 1
    Contents: Highlight of The Seventh Guest, Microcosm, World of ..., Eric Clapton, Andrew Lloyd Webber

Version and Editions:
    Version: 
    Edition/Release: 

Extras:
    Primary Volume Descriptor (PVD): Disc has no PVD

Tracks and Write Offsets:
    DAT:

<rom name="DigitalVideoFreeDemoDiscCD-iWorld (Track 1).bin" size="421772400" crc="ba0fdf8a" md5="6e8d5082f84f345c3e30aade97adaac5" sha1="681fe7be00aebe983cca98af4526e92725700e5e" />
<rom name="DigitalVideoFreeDemoDiscCD-iWorld (Track 2).bin" size="6174000" crc="7fed4cc1" md5="1ef6bcab7428cd84ff34728649393eaf" sha1="e760f53582651042364f16a9a8844eebe267c204" />
<rom name="DigitalVideoFreeDemoDiscCD-iWorld (Track 3).bin" size="6703200" crc="9ed896c6" md5="fbca1bbc7eff27a44d53b68d06755ddc" sha1="e68b5eedf85c23fb268d398786fc4e04f4e5d55d" />

    Cuesheet:

FILE "DigitalVideoFreeDemoDiscCD-iWorld (Track 1).bin" BINARY
  TRACK 01 CDI/2352
    INDEX 01 00:00:00
FILE "DigitalVideoFreeDemoDiscCD-iWorld (Track 2).bin" BINARY
  TRACK 02 AUDIO
    INDEX 00 00:00:00
    INDEX 01 00:02:00
FILE "DigitalVideoFreeDemoDiscCD-iWorld (Track 3).bin" BINARY
  TRACK 03 AUDIO
    INDEX 00 00:00:00
    INDEX 01 00:02:00

    Write Offset: 1259
Dump HW: Plextor PX-755A ATA (+30), Plextor PX-W4012A USB (+98)
Burn HW: HL-DT-ST BD-RE BP40NS20 USB (+0), HL-DT-ST BD-RE BP GGW-H20L SATA (+0)
All Win 10