Common Disc Info:
    Title: Magical Squadron
    Foreign Title (Non-latin): マジカルスコードロン
    Disc Number / Letter: (OPTIONAL)
    Disc Title: (OPTIONAL)
    System: NEC PC-98
    Media Type: CD-ROM
    Category: Games
    Region: Japan
    Languages: Japanese
    Disc Serial: (REQUIRED, IF EXISTS)

    Ringcode Information:
        Mastering Code (laser branded/etched): 21D-2081
        Mastering SID Code: IFPI-L302
        Data-Side Mould SID Code: IFPI-4806
        Label-Side Mould SID Code: (REQUIRED, IF EXISTS)
        Additional Mould: (REQUIRED, IF EXISTS)
        Toolstamp or Mastering Code (engraved/stamped): OP6Z2A
    Barcode: (OPTIONAL)
    EXE/Build Date: (REQUIRED)
    Error Count: 0
    Comments: (OPTIONAL)
    Contents: (OPTIONAL)

Version and Editions:
    Version: (REQUIRED, IF EXISTS)
    Edition/Release: Original (VERIFY THIS)

Extras:
    Primary Volume Descriptor (PVD):

0320 : 20 20 20 20 20 20 20 20  20 20 20 20 20 31 39 39                199
0330 : 36 31 32 30 35 31 33 31  39 30 30 30 30 00 31 39   6120513190000.19
0340 : 39 36 31 32 30 35 31 33  31 39 30 30 30 30 00 31   96120513190000.1
0350 : 39 39 36 31 32 30 35 31  33 31 39 30 30 30 30 00   996120513190000.
0360 : 31 39 39 36 31 32 30 35  31 33 31 39 30 30 30 30   1996120513190000
0370 : 00 01 00 00 00 00 00 00  00 00 00 00 00 00 00 00   ................

Tracks and Write Offsets:
    DAT:

<rom name="MAGICAL (Track 01).bin" size="136592400" crc="1f6699f0" md5="9f274f5fc6153ab47df584e814c94107" sha1="1e8ee9990d09a285f82da1c51373ffaef1002e8f" />
<rom name="MAGICAL (Track 02).bin" size="7841568" crc="784aff97" md5="205059260dddca4ec53bd61298546ab9" sha1="d79725b1db18e9d4e914571ff6931f05dc77dd02" />
<rom name="MAGICAL (Track 03).bin" size="12458544" crc="870821d7" md5="0e8690c476cb247e06323728dd7f4f12" sha1="939d7662959a929aeb5ac55428cb2d5470dc0a42" />
<rom name="MAGICAL (Track 04).bin" size="8351952" crc="85880fa3" md5="a5cff8037e7315dafbb55e8121800c5e" sha1="1b593527415ad4249d5186149fba3919d2c91e5e" />
<rom name="MAGICAL (Track 05).bin" size="10671024" crc="a01abf74" md5="ee82c005336233eb1d1ce002adc3a198" sha1="0487441bbb8c26fa8727ed5c4e8dae75af7e76a0" />
<rom name="MAGICAL (Track 06).bin" size="15212736" crc="234030fd" md5="75aaee23113ee5e4b824bdbbabe7d14f" sha1="f18301142a87fea1e6b0e8e0d5d02140432aed3c" />
<rom name="MAGICAL (Track 07).bin" size="11259024" crc="f226eef4" md5="281fc245509e0e20ba1669f8356fcb5d" sha1="ddee89aafe8f6852e1832067839dd9d25b7ab2ee" />
<rom name="MAGICAL (Track 08).bin" size="13973232" crc="4014d6ed" md5="5ba765a03f2aaadfb45f72d6519c1b16" sha1="023d201000470df9b669898a5422ad3848846055" />
<rom name="MAGICAL (Track 09).bin" size="9410352" crc="05ca6353" md5="593bbb9cbf1bcbd547c914379971f56e" sha1="a1cde0df34eb1b036662f4bce9f69487113a1b56" />
<rom name="MAGICAL (Track 10).bin" size="13006560" crc="689f8764" md5="ef5f8f58153b96ddc28b4a760dad8a5f" sha1="089198e28a32780ccd3d9d4eec02a32dfd221de0" />
<rom name="MAGICAL (Track 11).bin" size="11094384" crc="07f31832" md5="8f14b0126563f4637e3740f15f3aefe7" sha1="894144209d2476fa522968edb7842baae56cc4d0" />
<rom name="MAGICAL (Track 12).bin" size="19803840" crc="c62b499f" md5="48135388ecd58176f513a8976ffa01fb" sha1="4e8a2ac03e5b1b390bc5ceb64d9892c2b509ed26" />
<rom name="MAGICAL (Track 13).bin" size="1848672" crc="01a4b357" md5="23d9561e434860333b9bbcefa0c80f21" sha1="3064e228d69baaf8f6847d772f9b841104ea8466" />
<rom name="MAGICAL (Track 14).bin" size="17468304" crc="137fbc30" md5="914f466eceb01e5d051266227cfe6a30" sha1="ae839fe49188de90ea1b6f25040387b6bb1023e4" />
<rom name="MAGICAL (Track 15).bin" size="19763856" crc="5d70a178" md5="29290f67c8b009e81bc5286025869f30" sha1="ff3dd47c07a0133cb370210e92f1f0862d8dc158" />
<rom name="MAGICAL (Track 16).bin" size="25768512" crc="ff5b42ba" md5="568afa28f5af353f1c1c7eab7faaaf72" sha1="0d56b51c9ce966a706aa17251a347d53f43c7c5a" />
<rom name="MAGICAL (Track 17).bin" size="16581600" crc="0ffd7c4d" md5="8e17ae4f42a5a6ab045154860a26c4f1" sha1="f1e2784bc91794f0c1bb827b2dc298b9778e811c" />
<rom name="MAGICAL (Track 18).bin" size="39475968" crc="2f643336" md5="8089fc5bc293d91639c5784605b05e0a" sha1="9851e7c841dc0a23eda37c821a96851cfcd05983" />
<rom name="MAGICAL (Track 19).bin" size="33770016" crc="9f79ceb9" md5="ca9b3266336bcaf798af32dc59432633" sha1="ad20ca00816453c78a1d63fb6cf3026e7bd516ac" />
<rom name="MAGICAL (Track 20).bin" size="1063104" crc="e396b96c" md5="0801acb6f960bf5cad3404fdaf82e55f" sha1="8f42d3e451350474cfc79a03ab967d3db69606e4" />
<rom name="MAGICAL (Track 21).bin" size="28816704" crc="0b4598da" md5="d2185cab52d13dae572fab6ab7cc290c" sha1="8e6cee234b676e1c5a61e3ada7e0f1d5a6b0e045" />
<rom name="MAGICAL (Track 22).bin" size="52611888" crc="63323431" md5="fd47e0a223e7dee66e449908f13f69cc" sha1="314a6076ee54d751da303b63708456e0dd585d74" />

    Cuesheet:

CATALOG 0000000000000
FILE "MAGICAL (Track 01).bin" BINARY
  TRACK 01 MODE1/2352
    INDEX 01 00:00:00
FILE "MAGICAL (Track 02).bin" BINARY
  TRACK 02 AUDIO
    INDEX 00 00:00:00
    INDEX 01 00:02:00
FILE "MAGICAL (Track 03).bin" BINARY
  TRACK 03 AUDIO
    INDEX 00 00:00:00
    INDEX 01 00:02:00
FILE "MAGICAL (Track 04).bin" BINARY
  TRACK 04 AUDIO
    INDEX 01 00:00:00
FILE "MAGICAL (Track 05).bin" BINARY
  TRACK 05 AUDIO
    INDEX 00 00:00:00
    INDEX 01 00:02:00
FILE "MAGICAL (Track 06).bin" BINARY
  TRACK 06 AUDIO
    INDEX 01 00:00:00
FILE "MAGICAL (Track 07).bin" BINARY
  TRACK 07 AUDIO
    INDEX 00 00:00:00
    INDEX 01 00:02:00
FILE "MAGICAL (Track 08).bin" BINARY
  TRACK 08 AUDIO
    INDEX 00 00:00:00
    INDEX 01 00:02:00
FILE "MAGICAL (Track 09).bin" BINARY
  TRACK 09 AUDIO
    INDEX 00 00:00:00
    INDEX 01 00:02:00
FILE "MAGICAL (Track 10).bin" BINARY
  TRACK 10 AUDIO
    INDEX 00 00:00:00
    INDEX 01 00:02:00
FILE "MAGICAL (Track 11).bin" BINARY
  TRACK 11 AUDIO
    INDEX 00 00:00:00
    INDEX 01 00:02:00
FILE "MAGICAL (Track 12).bin" BINARY
  TRACK 12 AUDIO
    INDEX 00 00:00:00
    INDEX 01 00:02:00
FILE "MAGICAL (Track 13).bin" BINARY
  TRACK 13 AUDIO
    INDEX 00 00:00:00
    INDEX 01 00:02:00
FILE "MAGICAL (Track 14).bin" BINARY
  TRACK 14 AUDIO
    INDEX 00 00:00:00
    INDEX 01 00:02:00
FILE "MAGICAL (Track 15).bin" BINARY
  TRACK 15 AUDIO
    INDEX 01 00:00:00
FILE "MAGICAL (Track 16).bin" BINARY
  TRACK 16 AUDIO
    INDEX 00 00:00:00
    INDEX 01 00:02:00
FILE "MAGICAL (Track 17).bin" BINARY
  TRACK 17 AUDIO
    INDEX 00 00:00:00
    INDEX 01 00:02:00
FILE "MAGICAL (Track 18).bin" BINARY
  TRACK 18 AUDIO
    INDEX 00 00:00:00
    INDEX 01 00:02:00
FILE "MAGICAL (Track 19).bin" BINARY
  TRACK 19 AUDIO
    INDEX 01 00:00:00
FILE "MAGICAL (Track 20).bin" BINARY
  TRACK 20 AUDIO
    INDEX 00 00:00:00
    INDEX 01 00:02:00
FILE "MAGICAL (Track 21).bin" BINARY
  TRACK 21 AUDIO
    INDEX 00 00:00:00
    INDEX 01 00:02:00
FILE "MAGICAL (Track 22).bin" BINARY
  TRACK 22 AUDIO
    INDEX 00 00:00:00
    INDEX 01 00:02:00

    Write Offset: 0

https://www.dropbox.com/s/vsi0nvtohvoto … .zip?raw=1

Drama CD that's included

Common Disc Info:
    Title: Magical Squadron Space Version
    Foreign Title (Non-latin): マジカル・スコードロン宇宙篇
    Disc Number / Letter: (OPTIONAL)
    Disc Title: (OPTIONAL)
    System: Audio CD
    Media Type: CD-ROM
    Category: Audio
    Region: Japan
    Languages: Japanese
    Disc Serial: (REQUIRED, IF EXISTS)

    Ringcode Information:
        Mastering Code (laser branded/etched): KQG001   OP632A 
        Mastering SID Code: IFPI-L302
        Data-Side Mould SID Code: IFPI-4827
        Label-Side Mould SID Code: (REQUIRED, IF EXISTS)
        Additional Mould: (REQUIRED, IF EXISTS)
        Toolstamp or Mastering Code (engraved/stamped): (REQUIRED, IF EXISTS)
    Barcode: (OPTIONAL)
    Error Count: Error retrieving error count
    Comments: (OPTIONAL)
    Contents: (OPTIONAL)

Version and Editions:
    Version: (REQUIRED, IF EXISTS)
    Edition/Release: Original (VERIFY THIS)

Extras:
    Primary Volume Descriptor (PVD): Disc has no PVD

Tracks and Write Offsets:
    DAT:

<rom name="MSD.bin" size="67100208" crc="b3f120d1" md5="a09586a1701b910f05c4ce58f7167d6d" sha1="16d73a3f3853488e93d3c866dd61971929aa886d" />

    Cuesheet:

CATALOG 0000000000000
FILE "MSD.bin" BINARY
  TRACK 01 AUDIO
    INDEX 01 00:00:00

    Write Offset: 0

https://www.dropbox.com/s/wekm2z91x5uh0od/MSD.zip?raw=1

Coolmod wrote:

        Mastering SID Code: IFPI-L302
Data-Side Mould SID Code: IFPI-4806

Coolmod wrote:

        Mastering SID Code: IFPI-L302
Data-Side Mould SID Code: IFPI-4827

Any photos of these IFPIs with dashes, please?