1 (edited by wiggy2k Today 02:46:43)

Common Disc Info:
    Title: Free Software Collection 5
    System: Fujitsu FM Towns Marty
    Media Type: CD-ROM
    Category: Applications
    Region: Japan
    Languages: not checked
    Disc Serial: HMD-117A

    Ringcode Information:
        Mastering Code (laser branded/etched): HMD-117A<tab>1B1<tab>C<tab>28

    Barcode: T4988618040495
    Error Count: 0
    Comments: Fujitsu ID: A2760240
    Contents: (OPTIONAL)

Version and Editions:
    Version:
    Edition/Release: Original (VERIFY THIS)

Extras:
    Primary Volume Descriptor (PVD):

0320 : 20 20 20 20 20 20 20 20  20 20 20 20 20 31 39 39                199
0330 : 32 30 38 31 38 31 33 30  35 30 30 30 30 00 31 39   2081813050000.19
0340 : 39 32 30 38 31 38 31 33  30 35 30 30 30 30 00 30   92081813050000.0
0350 : 30 30 30 30 30 30 30 30  30 30 30 30 30 30 30 00   000000000000000.
0360 : 30 30 30 30 30 30 30 30  30 30 30 30 30 30 30 30   0000000000000000
0370 : 00 01 00 00 00 00 00 00  00 00 00 00 00 00 00 00   ................

Tracks and Write Offsets:
    DAT:

<rom name="FREESOFT (Track 1).bin" size="211327200" crc="f6a2808d" md5="4512719a34ddafd22a11a41fc6c73760" sha1="9c8e3c13463cb1415a6ed76ea0b2a9057d84375f" />
<rom name="FREESOFT (Track 2).bin" size="49039200" crc="552219a1" md5="e35a287f5e4c8807fddd87cbb34a7db6" sha1="51b32a7634160a77cd6b57296d1d2b416b4b55fe" />
<rom name="FREESOFT (Track 3).bin" size="45158400" crc="22a80659" md5="f04027efc1625c76c305a62bdb7aa27f" sha1="8ff6b42c2b4eb0fb0b894275e0bb1dd97e86448e" />
<rom name="FREESOFT (Track 4).bin" size="41806800" crc="14ea613c" md5="f6d768d32f4033352f1406175d46c1f5" sha1="44eba92d54247b30d2fc1391df5dca4d07a4b681" />
<rom name="FREESOFT (Track 5).bin" size="132829200" crc="69026eea" md5="fcb6a10f5da0f1a9c6774a600b2ade0c" sha1="48a984eca090f78a360165e878f6fb156167aa12" />
<rom name="FREESOFT (Track 6).bin" size="47628000" crc="21f529a9" md5="2defb0c1f9de164c3746f202e27ff8e7" sha1="dbb80b2837551978b6ee5c000559a18b681a3523" />
<rom name="FREESOFT (Track 7).bin" size="22050000" crc="a73f6485" md5="7a1253c7483b5036be2dc34d42e45965" sha1="bbb0b49391b0dbb01603c571aebf73d421c46750" />
<rom name="FREESOFT (Track 8).bin" size="94903200" crc="0a8e8b82" md5="4cbaa7d99e7c0f7240a45a73cc29d633" sha1="af58a275a9ec83f0f7902405fc2aa7fafcd5e773" />

    Cuesheet:

FILE "FREESOFT (Track 1).bin" BINARY
  TRACK 01 MODE1/2352
    INDEX 01 00:00:00
FILE "FREESOFT (Track 2).bin" BINARY
  TRACK 02 AUDIO
    INDEX 00 00:00:00
    INDEX 01 00:02:00
FILE "FREESOFT (Track 3).bin" BINARY
  TRACK 03 AUDIO
    INDEX 00 00:00:00
    INDEX 01 00:02:00
FILE "FREESOFT (Track 4).bin" BINARY
  TRACK 04 AUDIO
    INDEX 00 00:00:00
    INDEX 01 00:02:00
FILE "FREESOFT (Track 5).bin" BINARY
  TRACK 05 AUDIO
    INDEX 00 00:00:00
    INDEX 01 00:02:00
FILE "FREESOFT (Track 6).bin" BINARY
  TRACK 06 AUDIO
    INDEX 00 00:00:00
    INDEX 01 00:02:00
FILE "FREESOFT (Track 7).bin" BINARY
  TRACK 07 AUDIO
    INDEX 00 00:00:00
    INDEX 01 00:02:00
FILE "FREESOFT (Track 8).bin" BINARY
  TRACK 08 AUDIO
    INDEX 00 00:00:00
    INDEX 01 00:02:00

    Write Offset: 727


Logs:   https://cdn.discordapp.com/attachments/ … 5-revA.rar