Common Disc Info:
    Title: Appare CD Vol. 2: Houou no Maki
    Foreign Title (Non-latin): 天晴CD Vol.2 鳳凰の巻
    System: Fujitsu FM Towns Marty
    Media Type: CD-ROM
    Category: Coverdiscs
    Region: Japan
    Languages: not checked
    Disc Serial: OFMT-002

    Ringcode Information:
        Mastering Code (laser branded/etched): OFMT-002<tab>1
        Mastering SID Code: IFPI L275
        Data-Side Mould SID Code: IFPI 4543

    Barcode:
    Error Count: 0
    Comments: Oh! FM Towns ID: OFMT-002
    Contents:

Version and Editions:
    Version:
    Edition/Release: Bundled with Magazine

Extras:
    Primary Volume Descriptor (PVD):

0320 : 20 20 20 20 20 20 20 20  20 20 20 20 20 31 39 39                199
0330 : 35 30 36 32 30 31 33 33  35 31 32 00 30 00 31 39   50620133512.0.19
0340 : 39 35 30 36 32 33 31 32  30 30 30 30 00 30 00 30   950623120000.0.0
0350 : 30 30 30 30 30 30 30 30  30 30 30 30 30 00 30 00   0000000000000.0.
0360 : 30 30 30 30 30 30 30 30  30 30 30 30 30 30 00 30   00000000000000.0
0370 : 00 01 00 00 00 00 00 00  00 00 00 00 00 00 00 00   ................

Tracks and Write Offsets:
    DAT:

<rom name="APPARE2 (Track 1).bin" size="453366816" crc="08401dfe" md5="53364779da7769337ce4335e77888b74" sha1="d054164f4d44b4d0271ca87c53c048ca87f21a16" />
<rom name="APPARE2 (Track 2).bin" size="45929856" crc="2070066a" md5="c91a0d2008cec9a23554b7b30a4177fc" sha1="f6b09e3802699c2ad5a020e83331a0e726421f37" />
<rom name="APPARE2 (Track 3).bin" size="30797088" crc="6d0e025f" md5="3a14454be8b4fd82c1a073bb4f9cf011" sha1="44086e46ff90c868d443c855eb580fcd1ea59a83" />
<rom name="APPARE2 (Track 4).bin" size="27497232" crc="371af7c5" md5="6c1d37367a44f84fb8f34247e57b4535" sha1="a82c4d7cb5d7ef043fce6f509bef7ec1da7e4a3b" />
<rom name="APPARE2 (Track 5).bin" size="27062112" crc="1c34d300" md5="bd9d98c5f8583b14083e878df11f351e" sha1="7997f0d2226b9c2bca71c0d4395e327d02c1ce03" />

    Cuesheet:

FILE "APPARE2 (Track 1).bin" BINARY
  TRACK 01 MODE1/2352
    INDEX 01 00:00:00
FILE "APPARE2 (Track 2).bin" BINARY
  TRACK 02 AUDIO
    INDEX 00 00:00:00
    INDEX 01 00:02:00
FILE "APPARE2 (Track 3).bin" BINARY
  TRACK 03 AUDIO
    INDEX 00 00:00:00
    INDEX 01 00:02:00
FILE "APPARE2 (Track 4).bin" BINARY
  TRACK 04 AUDIO
    INDEX 00 00:00:00
    INDEX 01 00:02:00
FILE "APPARE2 (Track 5).bin" BINARY
  TRACK 05 AUDIO
    INDEX 00 00:00:00
    INDEX 01 00:02:00

    Write Offset: 2

logs:   https://cdn.discordapp.com/attachments/ … o_Maki.rar