Common Disc Info:
    Title: Vatlva
    Foreign Title (Non-latin): バトルバ
    Disc Number / Letter: (OPTIONAL)
    Disc Title: (OPTIONAL)
    System: Sega Saturn
    Media Type: CD-ROM
    Category: Demos
    Matching IDs: 41896
    Region: Japan
    Languages: Japanese
    Disc Serial: T-31501G

    Ringcode Information:
        Mastering Code (laser branded/etched): ST-31501G-P1K   V
        Mastering SID Code: IFPI L237
        Data-Side Mould SID Code: IFPI 4011
        Label-Side Mould SID Code:
        Additional Mould:
        Toolstamp or Mastering Code (engraved/stamped): 11
    Barcode: (OPTIONAL)
    EXE/Build Date: 19960923
    Error Count: 0
    Comments: <b>Alternative Title</b>: The Unlimited Battle: Vatlva
    Contents: (OPTIONAL)

Version and Editions:
    Version: V0.610
    Edition/Release: Taikenban

Extras:
    Primary Volume Descriptor (PVD):

0320 : 20 20 20 20 20 20 20 20  20 20 20 20 20 31 39 39                199
0330 : 36 30 39 32 33 30 31 30  31 30 31 30 31 01 31 39   6092301010101.19
0340 : 39 36 30 39 32 33 30 31  30 31 30 31 30 31 01 30   96092301010101.0
0350 : 30 30 30 30 30 30 30 30  30 30 30 30 30 30 30 00   000000000000000.
0360 : 30 30 30 30 30 30 30 30  30 30 30 30 30 30 30 30   0000000000000000
0370 : 00 01 00 00 00 00 00 00  00 00 00 00 00 00 00 00   ................

    Header:

0000 : 53 45 47 41 20 53 45 47  41 53 41 54 55 52 4E 20   SEGA SEGASATURN 
0010 : 53 45 47 41 20 54 50 20  54 2D 33 31 35 20 20 20   SEGA TP T-315   
0020 : 54 2D 33 31 35 30 31 47  20 20 56 30 2E 36 31 30   T-31501G  V0.610
0030 : 31 39 39 36 30 39 32 33  43 44 2D 31 2F 31 20 20   19960923CD-1/1  
0040 : 4A 20 20 20 20 20 20 20  20 20 20 20 20 20 20 20   J               
0050 : 4A 41 53 54 20 20 20 20  20 20 20 20 20 20 20 20   JAST            
0060 : 56 41 54 4C 56 41 20 20  20 20 20 20 20 20 20 20   VATLVA          
0070 : 20 20 20 20 20 20 20 20  20 20 20 20 20 20 20 20                   
0080 : 20 20 20 20 20 20 20 20  20 20 20 20 20 20 20 20                   
0090 : 20 20 20 20 20 20 20 20  20 20 20 20 20 20 20 20                   
00A0 : 20 20 20 20 20 20 20 20  20 20 20 20 20 20 20 20                   
00B0 : 20 20 20 20 20 20 20 20  20 20 20 20 20 20 20 20                   
00C0 : 20 20 20 20 20 20 20 20  20 20 20 20 20 20 20 20                   
00D0 : 00 00 00 00 00 00 00 00  00 00 00 00 00 00 00 00   ................
00E0 : 00 00 18 00 00 00 00 00  06 00 10 00 06 00 20 00   .............. .
00F0 : 06 01 00 00 00 00 00 00  00 00 00 00 00 00 00 00   ................

Tracks and Write Offsets:
    DAT:

<rom name="Vatlva (Demo) (Japan) (Track 1).bin" size="5795328" crc="b3f5115f" md5="eadfe8265bdcda72f75128e86a53e93b" sha1="12c5ed60bcf3b4d88520ecbdeada194627f16ac4" />
<rom name="Vatlva (Demo) (Japan) (Track 2).bin" size="33480720" crc="9128c295" md5="167d745cfa4614caa345f9e980447526" sha1="80811beb1bb43193fa4cb92e5dd86298b9012586" />
<rom name="Vatlva (Demo) (Japan) (Track 3).bin" size="31213392" crc="4b771257" md5="caca182587854b7fc5c9208fc0b6544d" sha1="245e6dd72de69b38bf97a660eef5810199ff2029" />
<rom name="Vatlva (Demo) (Japan) (Track 4).bin" size="36070272" crc="96dbd200" md5="7eaea330c78bcb51ddac46f68631583b" sha1="b117be98796d6997141bb2a804f0a9263958b889" />
<rom name="Vatlva (Demo) (Japan) (Track 5).bin" size="20455344" crc="aae3bc8f" md5="4ea175c8c973fb60c7ccd595bcf7a331" sha1="b1529c935f5b50f5f11709991ded753a1788dbb5" />

    Cuesheet:

CATALOG 0000000000000
FILE "Vatlva (Demo) (Japan) (Track 1).bin" BINARY
  TRACK 01 MODE1/2352
    INDEX 01 00:00:00
FILE "Vatlva (Demo) (Japan) (Track 2).bin" BINARY
  TRACK 02 AUDIO
    INDEX 00 00:00:00
    INDEX 01 00:02:00
FILE "Vatlva (Demo) (Japan) (Track 3).bin" BINARY
  TRACK 03 AUDIO
    INDEX 00 00:00:00
    INDEX 01 00:01:74
FILE "Vatlva (Demo) (Japan) (Track 4).bin" BINARY
  TRACK 04 AUDIO
    INDEX 00 00:00:00
    INDEX 01 00:01:74
FILE "Vatlva (Demo) (Japan) (Track 5).bin" BINARY
  TRACK 05 AUDIO
    INDEX 00 00:00:00
    INDEX 01 00:01:74

    Write Offset: 390

Post's attachments

Vatlva (Demo) (Japan).7z 795.63 kb, file has never been downloaded. 

You don't have the permssions to download the attachments of this post.