Common Disc Info:
    Title: Hyper Reverthion
    Foreign Title (Non-latin): ハイパー・リヴァーシオン
    Disc Number / Letter: (OPTIONAL)
    Disc Title: (OPTIONAL)
    System: Sega Saturn
    Media Type: CD-ROM
    Category: Games
    Matching IDs: 26474
    Region: Japan
    Languages: Japanese
    Disc Serial: T-1803G

    Ringcode Information:
        Mastering Code (laser branded/etched): T-1803GP-00834   2M1   C   65
        Mastering SID Code: IFPI L223
        Data-Side Mould SID Code: IFPI 3905
        Label-Side Mould SID Code:
        Additional Mould:
        Toolstamp or Mastering Code (engraved/stamped):
    Barcode: (OPTIONAL)
    EXE/Build Date: 19960418
    Error Count: 0
    Comments: (OPTIONAL)
    Contents: (OPTIONAL)

Version and Editions:
    Version: V1.002
    Edition/Release: Original

Extras:
    Primary Volume Descriptor (PVD):

0320 : 20 20 20 20 20 20 20 20  20 20 20 20 20 31 39 39                199
0330 : 36 30 34 31 37 32 31 32  37 33 37 30 30 DC 31 39   6041721273700.19
0340 : 39 36 30 34 31 37 32 31  32 37 33 37 30 30 DC 30   96041721273700.0
0350 : 30 30 30 30 30 30 30 30  30 30 30 30 30 30 30 00   000000000000000.
0360 : 30 30 30 30 30 30 30 30  30 30 30 30 30 30 30 30   0000000000000000
0370 : 00 01 00 00 00 00 00 00  00 00 00 00 00 00 00 00   ................

    Header:

0000 : 53 45 47 41 20 53 45 47  41 53 41 54 55 52 4E 20   SEGA SEGASATURN 
0010 : 53 45 47 41 20 54 50 20  20 20 20 54 2D 31 38 20   SEGA TP    T-18 
0020 : 54 2D 31 38 30 33 47 20  20 20 56 31 2E 30 30 32   T-1803G   V1.002
0030 : 31 39 39 36 30 34 31 38  43 44 2D 31 2F 31 20 20   19960418CD-1/1  
0040 : 4A 20 20 20 20 20 20 20  20 20 20 20 20 20 20 20   J               
0050 : 4A 20 20 20 20 20 20 20  20 20 20 20 20 20 20 20   J               
0060 : 48 59 50 45 52 20 52 45  56 45 52 54 48 49 4F 4E   HYPER REVERTHION
0070 : 20 20 20 20 20 20 20 20  20 20 20 20 20 20 20 20                   
0080 : 20 20 20 20 20 20 20 20  20 20 20 20 20 20 20 20                   
0090 : 20 20 20 20 20 20 20 20  20 20 20 20 20 20 20 20                   
00A0 : 20 20 20 20 20 20 20 20  20 20 20 20 20 20 20 20                   
00B0 : 20 20 20 20 20 20 20 20  20 20 20 20 20 20 20 20                   
00C0 : 20 20 20 20 20 20 20 20  20 20 20 20 20 20 20 20                   
00D0 : 00 00 00 00 00 00 00 00  00 00 00 00 00 00 00 00   ................
00E0 : 00 00 18 00 00 00 00 00  06 00 20 00 06 00 10 00   .......... .....
00F0 : 06 01 00 00 00 01 00 00  00 00 00 00 00 00 00 00   ................

Tracks and Write Offsets:
    DAT:

<rom name="Hyper Reverthion (Japan) (Track 01).bin" size="47860848" crc="6497e7c2" md5="36980f2178f571ba546447b9ace3c4fc" sha1="227d04dcbb42bdf7a7787949b439a51b46360f88" />
<rom name="Hyper Reverthion (Japan) (Track 02).bin" size="47635056" crc="24de080d" md5="50ece6022685ef75e43c8dac060322a4" sha1="53cfa5c5fc0d943d24c54058f84577aa9bb16b49" />
<rom name="Hyper Reverthion (Japan) (Track 03).bin" size="51268896" crc="08521357" md5="1ebd3167a460d2704510f24ffd641a29" sha1="1d244bfc52b91e02f6bd726a26f25472b3f4f70c" />
<rom name="Hyper Reverthion (Japan) (Track 04).bin" size="53413920" crc="2afbb7cb" md5="11a304f8f96edf5eda65f86bdc39c9ff" sha1="7d44e86d697b92bf2837d0751af6beaa26bd1102" />
<rom name="Hyper Reverthion (Japan) (Track 05).bin" size="53740848" crc="6249c771" md5="95dfce37a84ddb1e77ae268a15ced6f6" sha1="8ddfd430874c42106f4d8d53a68ec3d411a50263" />
<rom name="Hyper Reverthion (Japan) (Track 06).bin" size="42213696" crc="2da49117" md5="f4e135e28945ec9eb8aae035e8d10f49" sha1="a17cf87ddb4006adf40934d8d51383da0e17c337" />
<rom name="Hyper Reverthion (Japan) (Track 07).bin" size="53331600" crc="812e86a0" md5="920acd290d1cd5c359b72d374d877bbc" sha1="a752616dfc96ab6f9b47c0e3e9c133a461362c92" />
<rom name="Hyper Reverthion (Japan) (Track 08).bin" size="52249680" crc="37795315" md5="5e28f53dac3757f218c282d85d80038a" sha1="f709dcc7f93de27651706ad96cfaa3c96087cb34" />
<rom name="Hyper Reverthion (Japan) (Track 09).bin" size="41430480" crc="df9ffc0a" md5="041647ea6c73461be1df4a164542ea9e" sha1="dcb1f6ca63d521d056cfef5533e17d23227d7404" />
<rom name="Hyper Reverthion (Japan) (Track 10).bin" size="46437888" crc="2dbfbe30" md5="48c9c30963b7c910cef0d4a881c5a5ea" sha1="2e03129e5b69652138bbae791a9e8204ee6c8a1e" />
<rom name="Hyper Reverthion (Japan) (Track 11).bin" size="2072112" crc="f0318189" md5="401bb1d895f936797834dec02e1f7db9" sha1="542d4340aa78cc22cbf6a27c8fba0d8d143ca72c" />
<rom name="Hyper Reverthion (Japan) (Track 12).bin" size="10120656" crc="47390a10" md5="fe66ce70760afaf416f0f1a60f23b5b0" sha1="2118b3f4c86c60ba21ff665277c6c1cebd5596f7" />
<rom name="Hyper Reverthion (Japan) (Track 13).bin" size="18623136" crc="065760e0" md5="cac4846637a23d530667a5840b50cb96" sha1="6f809244f8664ca5207ac0367b0c58c03105c0ea" />
<rom name="Hyper Reverthion (Japan) (Track 14).bin" size="18474960" crc="44742326" md5="1eac52dd424ac92c115ebde6026b0330" sha1="e50635b3c6dfc00ef7507d68c540a1822a1c0edb" />
<rom name="Hyper Reverthion (Japan) (Track 15).bin" size="19970832" crc="56cab4fb" md5="ea9f6639320ab12266d1a992dd0ef4b6" sha1="6ed8254548d47af1c4f83f392a222cf519e28062" />
<rom name="Hyper Reverthion (Japan) (Track 16).bin" size="22529808" crc="700f68ab" md5="afbe0828922f50a12316994a9623e08f" sha1="63a3f6d635e68ddeeece48679cf951c3e157238a" />

    Cuesheet:

CATALOG 0000000000000
FILE "Hyper Reverthion (Japan) (Track 01).bin" BINARY
  TRACK 01 MODE1/2352
    INDEX 01 00:00:00
FILE "Hyper Reverthion (Japan) (Track 02).bin" BINARY
  TRACK 02 AUDIO
    INDEX 00 00:00:00
    INDEX 01 00:02:00
FILE "Hyper Reverthion (Japan) (Track 03).bin" BINARY
  TRACK 03 AUDIO
    INDEX 00 00:00:00
    INDEX 01 00:01:74
FILE "Hyper Reverthion (Japan) (Track 04).bin" BINARY
  TRACK 04 AUDIO
    INDEX 00 00:00:00
    INDEX 01 00:02:00
FILE "Hyper Reverthion (Japan) (Track 05).bin" BINARY
  TRACK 05 AUDIO
    INDEX 00 00:00:00
    INDEX 01 00:01:74
FILE "Hyper Reverthion (Japan) (Track 06).bin" BINARY
  TRACK 06 AUDIO
    INDEX 00 00:00:00
    INDEX 01 00:02:00
FILE "Hyper Reverthion (Japan) (Track 07).bin" BINARY
  TRACK 07 AUDIO
    INDEX 00 00:00:00
    INDEX 01 00:02:00
FILE "Hyper Reverthion (Japan) (Track 08).bin" BINARY
  TRACK 08 AUDIO
    INDEX 00 00:00:00
    INDEX 01 00:01:74
FILE "Hyper Reverthion (Japan) (Track 09).bin" BINARY
  TRACK 09 AUDIO
    INDEX 00 00:00:00
    INDEX 01 00:02:00
FILE "Hyper Reverthion (Japan) (Track 10).bin" BINARY
  TRACK 10 AUDIO
    INDEX 00 00:00:00
    INDEX 01 00:01:74
FILE "Hyper Reverthion (Japan) (Track 11).bin" BINARY
  TRACK 11 AUDIO
    INDEX 00 00:00:00
    INDEX 01 00:01:74
FILE "Hyper Reverthion (Japan) (Track 12).bin" BINARY
  TRACK 12 AUDIO
    INDEX 00 00:00:00
    INDEX 01 00:02:00
FILE "Hyper Reverthion (Japan) (Track 13).bin" BINARY
  TRACK 13 AUDIO
    INDEX 00 00:00:00
    INDEX 01 00:01:74
FILE "Hyper Reverthion (Japan) (Track 14).bin" BINARY
  TRACK 14 AUDIO
    INDEX 00 00:00:00
    INDEX 01 00:02:00
FILE "Hyper Reverthion (Japan) (Track 15).bin" BINARY
  TRACK 15 AUDIO
    INDEX 00 00:00:00
    INDEX 01 00:01:74
FILE "Hyper Reverthion (Japan) (Track 16).bin" BINARY
  TRACK 16 AUDIO
    INDEX 00 00:00:00
    INDEX 01 00:01:74

    Write Offset: 0

https://cdn.discordapp.com/attachments/ … n_Japan.7z