Common Disc Info:
    Title: Dead or Alive
    Foreign Title (Non-latin): デッド・オア・アライブ
    Disc Number / Letter: (OPTIONAL)
    Disc Title: (OPTIONAL)
    System: Sega Saturn
    Media Type: CD-ROM
    Category: Games
    Matching IDs: 71937
    Region: Japan
    Languages: Japanese
    Disc Serial: T-3603G

    Ringcode Information:
        Mastering Code (laser branded/etched): T-3603GP-01863   1MB1   C   79
        Mastering SID Code: IFPI L223
        Data-Side Mould SID Code: IFPI 3915
        Label-Side Mould SID Code:
        Additional Mould:
        Toolstamp or Mastering Code (engraved/stamped):
    Barcode: 4 960677 500042
    EXE/Build Date: 19970910
    Error Count: 0
    Comments: <b>Genre</b>: 3D Combative Sports
    Contents: (OPTIONAL)

Version and Editions:
    Version: V1.001
    Edition/Release: Limited Edition Box

Extras:
    Primary Volume Descriptor (PVD):

0320 : 20 20 20 20 20 20 20 20  20 20 20 20 20 31 39 39                199
0330 : 37 30 39 31 30 30 34 30  33 33 39 30 30 14 31 39   7091004033900.19
0340 : 39 37 30 39 31 30 30 34  30 33 33 39 30 30 14 30   97091004033900.0
0350 : 30 30 30 30 30 30 30 30  30 30 30 30 30 30 30 00   000000000000000.
0360 : 30 30 30 30 30 30 30 30  30 30 30 30 30 30 30 30   0000000000000000
0370 : 00 01 00 00 00 00 00 00  00 00 00 00 00 00 00 00   ................

    Header:

0000 : 53 45 47 41 20 53 45 47  41 53 41 54 55 52 4E 20   SEGA SEGASATURN 
0010 : 53 45 47 41 20 54 50 20  54 2D 33 36 20 20 20 20   SEGA TP T-36    
0020 : 54 2D 33 36 30 33 47 20  20 20 56 31 2E 30 30 31   T-3603G   V1.001
0030 : 31 39 39 37 30 39 31 30  43 44 2D 31 2F 31 20 20   19970910CD-1/1  
0040 : 4A 20 20 20 20 20 20 20  20 20 20 20 20 20 20 20   J               
0050 : 4A 20 20 20 20 20 20 20  20 20 20 20 20 20 20 20   J               
0060 : 44 45 41 44 20 4F 52 20  41 4C 49 56 45 20 20 20   DEAD OR ALIVE   
0070 : 20 20 20 20 20 20 20 20  20 20 20 20 20 20 20 20                   
0080 : 20 20 20 20 20 20 20 20  20 20 20 20 20 20 20 20                   
0090 : 20 20 20 20 20 20 20 20  20 20 20 20 20 20 20 20                   
00A0 : 20 20 20 20 20 20 20 20  20 20 20 20 20 20 20 20                   
00B0 : 20 20 20 20 20 20 20 20  20 20 20 20 20 20 20 20                   
00C0 : 20 20 20 20 20 20 20 20  20 20 20 20 20 20 20 20                   
00D0 : 00 00 00 00 00 00 00 00  00 00 00 00 00 00 00 00   ................
00E0 : 00 00 18 00 00 00 00 00  00 00 00 00 00 00 00 00   ................
00F0 : 06 00 40 00 00 00 00 00  00 00 00 00 00 00 00 00   ..@.............

Tracks and Write Offsets:
    DAT:

<rom name="Dead or Alive (Limited Edition) (Japan) (Track 01).bin" size="111527136" crc="b876ae12" md5="70652f7f3eb790a01f23929d63343c9e" sha1="e59e46aca45cf56bcdc35ef031121860d8c861a5" />
<rom name="Dead or Alive (Limited Edition) (Japan) (Track 02).bin" size="33259632" crc="438bc157" md5="50554afc22fe854530a80ecffcb9812d" sha1="7e1793b7d9000f96926d29ee5ee355ccd2bb4d1d" />
<rom name="Dead or Alive (Limited Edition) (Japan) (Track 03).bin" size="32358816" crc="704d87fb" md5="61def4fda9cce8aa96815bbba8930244" sha1="eb47f9eee3f40eb99b8197d96f018659dde1b7a1" />
<rom name="Dead or Alive (Limited Edition) (Japan) (Track 04).bin" size="31302768" crc="d7501103" md5="72b6843e5a6e747cc79c9b47d96a229f" sha1="e39b41004d8001cc3efd2d4d50e5218afb296f70" />
<rom name="Dead or Alive (Limited Edition) (Japan) (Track 05).bin" size="30018576" crc="e29755f4" md5="048fdb445b3ed2ba727be254381c5f44" sha1="6dae281b9344c67e06838159a4ef6a6fb74ec42b" />
<rom name="Dead or Alive (Limited Edition) (Japan) (Track 06).bin" size="32074224" crc="6876db8c" md5="f12243806a8259982e84e8c9a9ab0de8" sha1="0c45d7434a0cd6f2aa8750abee8ce6be8b3652dd" />
<rom name="Dead or Alive (Limited Edition) (Japan) (Track 07).bin" size="31076976" crc="89b53e1c" md5="db21928d9b4f20f3383d6f8943feb969" sha1="0ce551440d14d4556758dfddabcd6c93263fdbd2" />
<rom name="Dead or Alive (Limited Edition) (Japan) (Track 08).bin" size="30390192" crc="dde88cb5" md5="306b9d1a679a1be3b1447e7ce80fbf41" sha1="cd5f556461c0e219077d490ce067a2a8d17f5d46" />
<rom name="Dead or Alive (Limited Edition) (Japan) (Track 09).bin" size="32163600" crc="cd0ef0d1" md5="eb95accd5f3810ca86e3d3f78eb57d22" sha1="fe7bace146019a74d29d755b17d94df29b8ea5e9" />
<rom name="Dead or Alive (Limited Edition) (Japan) (Track 10).bin" size="37721376" crc="36e9f9df" md5="9b1f275bc344fb4718e74c003afc5f31" sha1="c557d0327d1d4f3c084f1de66f09093eae8c0568" />
<rom name="Dead or Alive (Limited Edition) (Japan) (Track 11).bin" size="9464448" crc="e60be644" md5="d62b087e1d48c56552df2e9f438c4d84" sha1="9782be830dd662074c9693ec4391beb91d19a91a" />
<rom name="Dead or Alive (Limited Edition) (Japan) (Track 12).bin" size="8243760" crc="8d2e2043" md5="e495a1b4fb3abc4ef00c7b9dcb272e41" sha1="8539a01e11b962d4b5b619fcddeb7f1a8119f514" />
<rom name="Dead or Alive (Limited Edition) (Japan) (Track 13).bin" size="2747136" crc="8f68b2f4" md5="0390944ecd1805c6d4c0875bc53d33f7" sha1="e2cd0b384463ccddcefb0cfb0455683a53d0a95b" />
<rom name="Dead or Alive (Limited Edition) (Japan) (Track 14).bin" size="1058400" crc="2ef09fdd" md5="cf5bc5c486bfd941de34bb2e915865da" sha1="f955fb774d2f8ef141cedd93114ff7a1672c1bea" />
<rom name="Dead or Alive (Limited Edition) (Japan) (Track 15).bin" size="1058400" crc="12f52fc1" md5="dbb9591c801e4d2214e8b7b80ebaad9c" sha1="35f078d087c7f65d70675c601bd8d231431ce94e" />
<rom name="Dead or Alive (Limited Edition) (Japan) (Track 16).bin" size="1058400" crc="f600d46e" md5="0db6c8e9cb99ea4da6588580760cbfcb" sha1="c7ea278ae0e1ac066ca7ae4d1f05a80dca85f4d0" />
<rom name="Dead or Alive (Limited Edition) (Japan) (Track 17).bin" size="1058400" crc="060483af" md5="0cd37eb9facfa7cefca6d07da555e101" sha1="723799eb3f8c07c14d868ed9281643800f4e0f48" />
<rom name="Dead or Alive (Limited Edition) (Japan) (Track 18).bin" size="1058400" crc="a954fd52" md5="51feaef8f77a0f2af42509d752d93332" sha1="59d7876bc9d3b238abdc26619a9a654a9af5e614" />
<rom name="Dead or Alive (Limited Edition) (Japan) (Track 19).bin" size="1058400" crc="8990f2bf" md5="04d59f5deaed578be882906ea23a524e" sha1="66193d73b154dd8f0a6d5d8b321cacf0a076c718" />
<rom name="Dead or Alive (Limited Edition) (Japan) (Track 20).bin" size="1058400" crc="ceb128eb" md5="7c9bec01a89c707cdb2e5ea7c5604b82" sha1="fd5267edb8707d2262ddb3a10b3c2f72cd2e208d" />
<rom name="Dead or Alive (Limited Edition) (Japan) (Track 21).bin" size="1058400" crc="6706e4c8" md5="7be80df7d3482655f5e5edadb122f759" sha1="361492ee42d5607254d7b13288a537618845d3f1" />
<rom name="Dead or Alive (Limited Edition) (Japan) (Track 22).bin" size="1058400" crc="eed24597" md5="d79dc99bed6f444e783e790c1590e167" sha1="89f7dca536f5cb77d759b28abc0aa9cbd3d42be8" />
<rom name="Dead or Alive (Limited Edition) (Japan) (Track 23).bin" size="1199520" crc="e3a31006" md5="849e211bbc686ec8691b3379959ab3e7" sha1="371b032947a39133ef29b5f4b489ccd7b7f9f933" />
<rom name="Dead or Alive (Limited Edition) (Japan) (Track 24).bin" size="26295360" crc="c4a41ccf" md5="1a359d2a46383f6cfea53b664e778408" sha1="626e2c8c6d15a762f2c288a3f7bc93ab5d7c06df" />

    Cuesheet:

CATALOG 0000000000000
FILE "Dead or Alive (Limited Edition) (Japan) (Track 01).bin" BINARY
  TRACK 01 MODE1/2352
    INDEX 01 00:00:00
FILE "Dead or Alive (Limited Edition) (Japan) (Track 02).bin" BINARY
  TRACK 02 AUDIO
    INDEX 00 00:00:00
    INDEX 01 00:02:00
FILE "Dead or Alive (Limited Edition) (Japan) (Track 03).bin" BINARY
  TRACK 03 AUDIO
    INDEX 00 00:00:00
    INDEX 01 00:02:00
FILE "Dead or Alive (Limited Edition) (Japan) (Track 04).bin" BINARY
  TRACK 04 AUDIO
    INDEX 00 00:00:00
    INDEX 01 00:02:00
FILE "Dead or Alive (Limited Edition) (Japan) (Track 05).bin" BINARY
  TRACK 05 AUDIO
    INDEX 00 00:00:00
    INDEX 01 00:02:00
FILE "Dead or Alive (Limited Edition) (Japan) (Track 06).bin" BINARY
  TRACK 06 AUDIO
    INDEX 00 00:00:00
    INDEX 01 00:02:00
FILE "Dead or Alive (Limited Edition) (Japan) (Track 07).bin" BINARY
  TRACK 07 AUDIO
    INDEX 00 00:00:00
    INDEX 01 00:02:00
FILE "Dead or Alive (Limited Edition) (Japan) (Track 08).bin" BINARY
  TRACK 08 AUDIO
    INDEX 00 00:00:00
    INDEX 01 00:02:00
FILE "Dead or Alive (Limited Edition) (Japan) (Track 09).bin" BINARY
  TRACK 09 AUDIO
    INDEX 00 00:00:00
    INDEX 01 00:02:00
FILE "Dead or Alive (Limited Edition) (Japan) (Track 10).bin" BINARY
  TRACK 10 AUDIO
    INDEX 00 00:00:00
    INDEX 01 00:02:00
FILE "Dead or Alive (Limited Edition) (Japan) (Track 11).bin" BINARY
  TRACK 11 AUDIO
    INDEX 00 00:00:00
    INDEX 01 00:02:00
FILE "Dead or Alive (Limited Edition) (Japan) (Track 12).bin" BINARY
  TRACK 12 AUDIO
    INDEX 00 00:00:00
    INDEX 01 00:02:00
FILE "Dead or Alive (Limited Edition) (Japan) (Track 13).bin" BINARY
  TRACK 13 AUDIO
    INDEX 00 00:00:00
    INDEX 01 00:02:00
FILE "Dead or Alive (Limited Edition) (Japan) (Track 14).bin" BINARY
  TRACK 14 AUDIO
    INDEX 00 00:00:00
    INDEX 01 00:02:00
FILE "Dead or Alive (Limited Edition) (Japan) (Track 15).bin" BINARY
  TRACK 15 AUDIO
    INDEX 00 00:00:00
    INDEX 01 00:02:00
FILE "Dead or Alive (Limited Edition) (Japan) (Track 16).bin" BINARY
  TRACK 16 AUDIO
    INDEX 00 00:00:00
    INDEX 01 00:02:00
FILE "Dead or Alive (Limited Edition) (Japan) (Track 17).bin" BINARY
  TRACK 17 AUDIO
    INDEX 00 00:00:00
    INDEX 01 00:02:00
FILE "Dead or Alive (Limited Edition) (Japan) (Track 18).bin" BINARY
  TRACK 18 AUDIO
    INDEX 00 00:00:00
    INDEX 01 00:02:00
FILE "Dead or Alive (Limited Edition) (Japan) (Track 19).bin" BINARY
  TRACK 19 AUDIO
    INDEX 00 00:00:00
    INDEX 01 00:02:00
FILE "Dead or Alive (Limited Edition) (Japan) (Track 20).bin" BINARY
  TRACK 20 AUDIO
    INDEX 00 00:00:00
    INDEX 01 00:02:00
FILE "Dead or Alive (Limited Edition) (Japan) (Track 21).bin" BINARY
  TRACK 21 AUDIO
    INDEX 00 00:00:00
    INDEX 01 00:02:00
FILE "Dead or Alive (Limited Edition) (Japan) (Track 22).bin" BINARY
  TRACK 22 AUDIO
    INDEX 00 00:00:00
    INDEX 01 00:02:00
FILE "Dead or Alive (Limited Edition) (Japan) (Track 23).bin" BINARY
  TRACK 23 AUDIO
    INDEX 00 00:00:00
    INDEX 01 00:02:00
FILE "Dead or Alive (Limited Edition) (Japan) (Track 24).bin" BINARY
  TRACK 24 AUDIO
    INDEX 00 00:00:00
    INDEX 01 00:02:00

    Write Offset: 0

https://cdn.discordapp.com/attachments/ … n_Japan.7z

Can you please double check either the serial or edition?  It says Limited Edition, but T-3603.