1 (edited by LastCat 2020-08-05 18:35:54)

Common Disc Info:
    Title: Gouketsuji Ichizoku 3: Groove on Fight
    Foreign Title (Non-latin): 豪血寺一族3グルーヴ・オン・ファイト
    Disc Number / Letter:
    Disc Title:
    System: Sega Saturn
    Media Type: CD-ROM
    Category: Games
    Matching IDs: 29061
    Region: Japan
    Languages: Japanese
    Disc Serial: T-14413G

    Ringcode Information:
        Mastering Code (laser branded/etched): T-14411GP-01520-P1C    V
        Mastering SID Code: IFPI L231
        Data-Side Mould SID Code:IFPI 4011
        Label-Side Mould SID Code:
        Additional Mould:
        Toolstamp or Mastering Code (engraved/stamped): 11
    Barcode: 4 984995 800134
    EXE/Build Date: 19970317
    Error Count: 0
    Comments:
    Contents:

Version and Editions:
    Version: V1.001
    Edition/Release: Doukonban

Extras:
    Primary Volume Descriptor (PVD):

0320 : 20 20 20 20 20 20 20 20  20 20 20 20 20 31 39 39                199
0330 : 37 30 33 31 37 30 31 32  33 34 36 30 30 14 31 39   7031701234600.19
0340 : 39 37 30 33 31 37 30 31  32 33 34 36 30 30 14 30   97031701234600.0
0350 : 30 30 30 30 30 30 30 30  30 30 30 30 30 30 30 00   000000000000000.
0360 : 30 30 30 30 30 30 30 30  30 30 30 30 30 30 30 30   0000000000000000
0370 : 00 01 00 00 00 00 00 00  00 00 00 00 00 00 00 00   ................

    Header:

0000 : 53 45 47 41 20 53 45 47  41 53 41 54 55 52 4E 20   SEGA SEGASATURN 
0010 : 53 45 47 41 20 54 50 20  54 2D 31 34 34 20 20 20   SEGA TP T-144   
0020 : 54 2D 31 34 34 31 31 47  20 20 56 31 2E 30 30 31   T-14411G  V1.001
0030 : 31 39 39 37 30 33 31 37  43 44 2D 31 2F 31 20 20   19970317CD-1/1  
0040 : 4A 20 20 20 20 20 20 20  20 20 20 20 20 20 20 20   J               
0050 : 4A 54 57 20 20 20 20 20  20 20 20 20 20 20 20 20   JTW             
0060 : 47 52 4F 4F 56 45 20 4F  4E 20 46 49 47 48 54 20   GROOVE ON FIGHT 
0070 : 20 20 20 20 20 20 20 20  20 20 20 20 20 20 20 20                   
0080 : 20 20 20 20 20 20 20 20  20 20 20 20 20 20 20 20                   
0090 : 20 20 20 20 20 20 20 20  20 20 20 20 20 20 20 20                   
00A0 : 20 20 20 20 20 20 20 20  20 20 20 20 20 20 20 20                   
00B0 : 20 20 20 20 20 20 20 20  20 20 20 20 20 20 20 20                   
00C0 : 20 20 20 20 20 20 20 20  20 20 20 20 20 20 20 20                   
00D0 : 00 00 00 00 00 00 00 00  00 00 00 00 00 00 00 00   ................
00E0 : 00 00 10 00 00 00 00 00  00 00 00 00 00 00 00 00   ................
00F0 : 00 20 00 00 00 00 00 00  00 00 00 00 00 00 00 00   . ..............

Tracks and Write Offsets:
    DAT:

<rom name="Gouketsuji Ichizoku 3 - Groove On Fight (Japan) (Track 01).bin" size="120864576" crc="78f93471" md5="200f24cb50e1f6d340b900649f424b11" sha1="59744e8d94f6285f0eedc20357ab06d65c48b211" />
<rom name="Gouketsuji Ichizoku 3 - Groove On Fight (Japan) (Track 02).bin" size="3356304" crc="2df9bd40" md5="2eb27234a5bf9fc8b6764bbf97fe17eb" sha1="055590763899bd0a4ef26d7e0df9ff0bf4ac95b2" />
<rom name="Gouketsuji Ichizoku 3 - Groove On Fight (Japan) (Track 03).bin" size="2634240" crc="0ccb9beb" md5="fb6678f52d4a19a631b5bd5d13c86c67" sha1="0717c2ce39b20885fa6e76c494c32afc6d70b6e3" />
<rom name="Gouketsuji Ichizoku 3 - Groove On Fight (Japan) (Track 04).bin" size="14453040" crc="6fc92665" md5="e5c31703d5f206a539604a2135764207" sha1="9dae43891cc99fb0cb86b01d2af8cee5a971591c" />
<rom name="Gouketsuji Ichizoku 3 - Groove On Fight (Japan) (Track 05).bin" size="6169296" crc="c8d78b63" md5="34e7d91af56f0aa9ea85e9e546328692" sha1="75875eae03c8014d35a7d3b0a7630a0bed49e08d" />
<rom name="Gouketsuji Ichizoku 3 - Groove On Fight (Japan) (Track 06).bin" size="6204576" crc="1042164e" md5="1ec7559ab05a6e009e0ebf20e6147daf" sha1="2b38bc5d5e27dfaa6d4a7b0bf2b050035742fdef" />
<rom name="Gouketsuji Ichizoku 3 - Groove On Fight (Japan) (Track 07).bin" size="5654208" crc="7aabb914" md5="73303170182742deb7f19e65dfadd7f9" sha1="9de424000d553e2f6a15364a190fe115bf9fb9c4" />
<rom name="Gouketsuji Ichizoku 3 - Groove On Fight (Japan) (Track 08).bin" size="44130576" crc="62ecaa50" md5="d608a7521481d32d8fe33bbacd695a31" sha1="9b4230dc3c8b06969d798e1b7f4b549dae6d0c14" />
<rom name="Gouketsuji Ichizoku 3 - Groove On Fight (Japan) (Track 09).bin" size="47148192" crc="f6a3102d" md5="991535f1245f1f44f8195cdcb550f85b" sha1="7d5761497083c017010638ac69f6c089ca6acc27" />
<rom name="Gouketsuji Ichizoku 3 - Groove On Fight (Japan) (Track 10).bin" size="44304624" crc="8120d1b9" md5="04d5afdfd223ddd4acc3305c471e0250" sha1="ca64206b46afb8797a1753e209fe9c8952542ed0" />
<rom name="Gouketsuji Ichizoku 3 - Groove On Fight (Japan) (Track 11).bin" size="43199184" crc="aff22755" md5="212c457c3b9d32fdc95a2a9338191e2a" sha1="73db129b32de81b2f2d9d925eca030c420b2cf22" />
<rom name="Gouketsuji Ichizoku 3 - Groove On Fight (Japan) (Track 12).bin" size="42963984" crc="3edd2ac6" md5="0b3cf2c95f0e01d82f33fbbb3e00d52e" sha1="d356fb6a7aaafcf5ec77244414e342573767b2e5" />
<rom name="Gouketsuji Ichizoku 3 - Groove On Fight (Japan) (Track 13).bin" size="44518656" crc="0c1e24ad" md5="ecd43864b9cc3e81b1660cc3583906ee" sha1="ff8604ccf94d229a05e523ac27763c1997665e0b" />
<rom name="Gouketsuji Ichizoku 3 - Groove On Fight (Japan) (Track 14).bin" size="47933760" crc="fb262464" md5="1a59f8da8f15e94b49d35d37daf8b327" sha1="f82650e8afc0de756eea1c861c057de772482483" />
<rom name="Gouketsuji Ichizoku 3 - Groove On Fight (Japan) (Track 15).bin" size="35510496" crc="b56d9f98" md5="84965d26355b4f61cc3e688cf68f98a0" sha1="4bbfd6a2124df55135f29d9e8d55d874ff09083f" />
<rom name="Gouketsuji Ichizoku 3 - Groove On Fight (Japan) (Track 16).bin" size="3535056" crc="ecdfb8c3" md5="094051031d939decdcf3fbf311b0919a" sha1="8da24b32900b1b84d352a2becce305926fb1af84" />
<rom name="Gouketsuji Ichizoku 3 - Groove On Fight (Japan) (Track 17).bin" size="14314272" crc="4f737e01" md5="cd4eab48f171151f59aa56e85708c252" sha1="1355ed5c1e643c34e1d1a279284289cbacd4ea51" />
<rom name="Gouketsuji Ichizoku 3 - Groove On Fight (Japan) (Track 18).bin" size="2928240" crc="8c36d7cd" md5="9d2bd108356fee8496fbc9c57166b927" sha1="b7a34acafa5751b1ea85e1f629bf9c52dfb317f2" />
<rom name="Gouketsuji Ichizoku 3 - Groove On Fight (Japan) (Track 19).bin" size="3179904" crc="fb6f9d4d" md5="da86dfb82e159a064be65bcd2030a8e6" sha1="5cf9045a931fc07ffbe3aeb2b87e0b3523c9c35d" />
<rom name="Gouketsuji Ichizoku 3 - Groove On Fight (Japan) (Track 20).bin" size="3812592" crc="a301f578" md5="62694d14ced5cbf383936c66ed12460b" sha1="cbc2a6aea2739da2a32de33d82a1c4369c288cbe" />
<rom name="Gouketsuji Ichizoku 3 - Groove On Fight (Japan) (Track 21).bin" size="2441376" crc="3df795a5" md5="8c7ebc55dc8ff4d947d24e8cc738449a" sha1="d2c66d085f5051f3c70f93ed4a051679543b847c" />
<rom name="Gouketsuji Ichizoku 3 - Groove On Fight (Japan) (Track 22).bin" size="3412752" crc="6ecf290a" md5="3060604e4a5c026b1fa897e638e02745" sha1="ca433685910f3679148063c2a925831c9f53d9a2" />
<rom name="Gouketsuji Ichizoku 3 - Groove On Fight (Japan) (Track 23).bin" size="8236704" crc="ac3e274a" md5="6c931de9e85777d78896ea261291b31a" sha1="3c21c4e6243542eafb0e60fce433a7b93c9bdcf4" />
<rom name="Gouketsuji Ichizoku 3 - Groove On Fight (Japan) (Track 24).bin" size="3285744" crc="d5d9f6ba" md5="cce4fb337186ab5c4c70fb556b0f2e74" sha1="6520782894aede1bfd3ccc994dbb59669eefb999" />
<rom name="Gouketsuji Ichizoku 3 - Groove On Fight (Japan) (Track 25).bin" size="16694496" crc="c2c5612e" md5="f68babd0b3b5b6da2a4f0cad52be942d" sha1="457a07f502129061632007cc7274c0dee0f9fdbc" />
<rom name="Gouketsuji Ichizoku 3 - Groove On Fight (Japan) (Track 26).bin" size="5383728" crc="b6e0f4ed" md5="6f540c200e265f4cb2499c13001da5dc" sha1="2146088b47110027e308ce416eb3a5be3a3b420e" />
<rom name="Gouketsuji Ichizoku 3 - Groove On Fight (Japan) (Track 27).bin" size="23748144" crc="997bb77b" md5="71dc560591216f5b65bd7ac8a8137794" sha1="d610312f1e1b89fd9c1fea5d38e3bdf315fc0d59" />
<rom name="Gouketsuji Ichizoku 3 - Groove On Fight (Japan) (Track 28).bin" size="6293952" crc="44e24e5d" md5="69807d138d0dd5883785f1392105dbf9" sha1="64b497c71308e5de8d2131d1d6dafdf7c45ad339" />

    Cuesheet:

CATALOG 0000000000000
FILE "Gouketsuji Ichizoku 3 - Groove On Fight (Japan) (Track 01).bin" BINARY
  TRACK 01 MODE1/2352
    INDEX 01 00:00:00
FILE "Gouketsuji Ichizoku 3 - Groove On Fight (Japan) (Track 02).bin" BINARY
  TRACK 02 AUDIO
    INDEX 00 00:00:00
    INDEX 01 00:02:00
FILE "Gouketsuji Ichizoku 3 - Groove On Fight (Japan) (Track 03).bin" BINARY
  TRACK 03 AUDIO
    INDEX 00 00:00:00
    INDEX 01 00:01:74
FILE "Gouketsuji Ichizoku 3 - Groove On Fight (Japan) (Track 04).bin" BINARY
  TRACK 04 AUDIO
    INDEX 00 00:00:00
    INDEX 01 00:01:74
FILE "Gouketsuji Ichizoku 3 - Groove On Fight (Japan) (Track 05).bin" BINARY
  TRACK 05 AUDIO
    INDEX 00 00:00:00
    INDEX 01 00:01:74
FILE "Gouketsuji Ichizoku 3 - Groove On Fight (Japan) (Track 06).bin" BINARY
  TRACK 06 AUDIO
    INDEX 00 00:00:00
    INDEX 01 00:01:74
FILE "Gouketsuji Ichizoku 3 - Groove On Fight (Japan) (Track 07).bin" BINARY
  TRACK 07 AUDIO
    INDEX 00 00:00:00
    INDEX 01 00:01:74
FILE "Gouketsuji Ichizoku 3 - Groove On Fight (Japan) (Track 08).bin" BINARY
  TRACK 08 AUDIO
    INDEX 00 00:00:00
    INDEX 01 00:01:74
FILE "Gouketsuji Ichizoku 3 - Groove On Fight (Japan) (Track 09).bin" BINARY
  TRACK 09 AUDIO
    INDEX 00 00:00:00
    INDEX 01 00:01:74
FILE "Gouketsuji Ichizoku 3 - Groove On Fight (Japan) (Track 10).bin" BINARY
  TRACK 10 AUDIO
    INDEX 00 00:00:00
    INDEX 01 00:01:74
FILE "Gouketsuji Ichizoku 3 - Groove On Fight (Japan) (Track 11).bin" BINARY
  TRACK 11 AUDIO
    INDEX 00 00:00:00
    INDEX 01 00:01:74
FILE "Gouketsuji Ichizoku 3 - Groove On Fight (Japan) (Track 12).bin" BINARY
  TRACK 12 AUDIO
    INDEX 00 00:00:00
    INDEX 01 00:01:74
FILE "Gouketsuji Ichizoku 3 - Groove On Fight (Japan) (Track 13).bin" BINARY
  TRACK 13 AUDIO
    INDEX 00 00:00:00
    INDEX 01 00:01:74
FILE "Gouketsuji Ichizoku 3 - Groove On Fight (Japan) (Track 14).bin" BINARY
  TRACK 14 AUDIO
    INDEX 00 00:00:00
    INDEX 01 00:01:74
FILE "Gouketsuji Ichizoku 3 - Groove On Fight (Japan) (Track 15).bin" BINARY
  TRACK 15 AUDIO
    INDEX 00 00:00:00
    INDEX 01 00:01:74
FILE "Gouketsuji Ichizoku 3 - Groove On Fight (Japan) (Track 16).bin" BINARY
  TRACK 16 AUDIO
    INDEX 00 00:00:00
    INDEX 01 00:01:74
FILE "Gouketsuji Ichizoku 3 - Groove On Fight (Japan) (Track 17).bin" BINARY
  TRACK 17 AUDIO
    INDEX 00 00:00:00
    INDEX 01 00:01:74
FILE "Gouketsuji Ichizoku 3 - Groove On Fight (Japan) (Track 18).bin" BINARY
  TRACK 18 AUDIO
    INDEX 00 00:00:00
    INDEX 01 00:01:74
FILE "Gouketsuji Ichizoku 3 - Groove On Fight (Japan) (Track 19).bin" BINARY
  TRACK 19 AUDIO
    INDEX 00 00:00:00
    INDEX 01 00:01:74
FILE "Gouketsuji Ichizoku 3 - Groove On Fight (Japan) (Track 20).bin" BINARY
  TRACK 20 AUDIO
    INDEX 00 00:00:00
    INDEX 01 00:01:74
FILE "Gouketsuji Ichizoku 3 - Groove On Fight (Japan) (Track 21).bin" BINARY
  TRACK 21 AUDIO
    INDEX 00 00:00:00
    INDEX 01 00:01:74
FILE "Gouketsuji Ichizoku 3 - Groove On Fight (Japan) (Track 22).bin" BINARY
  TRACK 22 AUDIO
    INDEX 00 00:00:00
    INDEX 01 00:01:74
FILE "Gouketsuji Ichizoku 3 - Groove On Fight (Japan) (Track 23).bin" BINARY
  TRACK 23 AUDIO
    INDEX 00 00:00:00
    INDEX 01 00:01:74
FILE "Gouketsuji Ichizoku 3 - Groove On Fight (Japan) (Track 24).bin" BINARY
  TRACK 24 AUDIO
    INDEX 00 00:00:00
    INDEX 01 00:01:74
FILE "Gouketsuji Ichizoku 3 - Groove On Fight (Japan) (Track 25).bin" BINARY
  TRACK 25 AUDIO
    INDEX 00 00:00:00
    INDEX 01 00:01:74
FILE "Gouketsuji Ichizoku 3 - Groove On Fight (Japan) (Track 26).bin" BINARY
  TRACK 26 AUDIO
    INDEX 00 00:00:00
    INDEX 01 00:01:74
FILE "Gouketsuji Ichizoku 3 - Groove On Fight (Japan) (Track 27).bin" BINARY
  TRACK 27 AUDIO
    INDEX 00 00:00:00
    INDEX 01 00:01:74
FILE "Gouketsuji Ichizoku 3 - Groove On Fight (Japan) (Track 28).bin" BINARY
  TRACK 28 AUDIO
    INDEX 00 00:00:00
    INDEX 01 00:01:74

    Write Offset: 672

https://cdn.discordapp.com/attachments/ … t_Japan.7z

Is it "IFPI 4011" or "IFPI4011" ?
Thanks!