Page: http://redump.org/disc/54285/
Log: https://cdn.discordapp.com/attachments/ … SONICPC.7z

Common Disc Info:
    Title: Sonic CD
    Foreign Title (Non-latin): (OPTIONAL)
    Disc Number / Letter: (OPTIONAL)
    Disc Title: (OPTIONAL)
    System: IBM PC Compatible
    Media Type: CD-ROM
    Category: Games
    Region: World
    Languages: Klingon (CHANGE THIS)
    Disc Serial: 6805 02

    Ringcode Information:
        Mastering Code (laser branded/etched): *1R* 680502   B
        Mastering SID Code: IFPI L433
        Data-Side Mould SID Code: (REQUIRED, IF EXISTS)
        Label-Side Mould SID Code: (REQUIRED, IF EXISTS)
        Additional Mould: (REQUIRED, IF EXISTS)
        Toolstamp or Mastering Code (engraved/stamped): EA
    Barcode: (OPTIONAL)
    Error Count: 0
    Comments: [T:ISBN] (OPTIONAL)
    Contents: (OPTIONAL)

Version and Editions:
    Version: (REQUIRED, IF EXISTS)
    Edition/Release: Expert Software

Extras:
    Primary Volume Descriptor (PVD):

0320 : 20 20 20 20 20 20 20 20  20 20 20 20 20 31 39 39                199
0330 : 37 31 30 32 33 31 34 30  36 34 39 30 30 00 31 39   7102314064900.19
0340 : 39 37 31 30 32 33 31 34  30 36 34 39 30 30 00 30   97102314064900.0
0350 : 30 30 30 30 30 30 30 30  30 30 30 30 30 30 30 00   000000000000000.
0360 : 30 30 30 30 30 30 30 30  30 30 30 30 30 30 30 30   0000000000000000
0370 : 00 01 00 00 00 00 00 00  00 00 00 00 00 00 00 00   ................

Copy Protection:
    Copy Protection: 

Tracks and Write Offsets:
    DAT:

<rom name="SONICPC (Track 01).bin" size="218884176" crc="abc2a43b" md5="20c01397a6d8dd8cef36c3fbb9b6d43a" sha1="e9ef17afa8c566d07a3fee7355b88c33bcf4ba25" />
<rom name="SONICPC (Track 02).bin" size="1462944" crc="e585e0c6" md5="cce336201cc735db915ff50ed3b4f89a" sha1="45d26d3f3a0862c9e75c10e8bee492d2c3575923" />
<rom name="SONICPC (Track 03).bin" size="19935552" crc="f7a6b795" md5="ffd0de96d98aba428307e2e2f9db51c6" sha1="6034eb6d6ee3462467e1be53e81394075c347251" />
<rom name="SONICPC (Track 04).bin" size="14834064" crc="41885790" md5="f6695fdd2babde5a9fa698d3c92a7738" sha1="30517d47388f0368140e7ab34174d8dba680f276" />
<rom name="SONICPC (Track 05).bin" size="15553776" crc="7690f251" md5="9c112820bd89f71d77bfaca9ffaa8a7e" sha1="76c273d32e13463ae0cdb32deb66b74ae57d5109" />
<rom name="SONICPC (Track 06).bin" size="18195072" crc="3d0d8457" md5="4724c11dd2fe6524d5a769c3dc388416" sha1="e5e95bd5257de07aaf539396f0741289e283c051" />
<rom name="SONICPC (Track 07).bin" size="14664720" crc="3fe68767" md5="2d536d3a9a208c00121375309b8b4a4a" sha1="f2947e05d0174317721e2cf5e6f763cfde223f93" />
<rom name="SONICPC (Track 08).bin" size="15003408" crc="478ce897" md5="30c8a8c885c398a445365c6e2cb3c625" sha1="25a659346d1cd11b42512960270845ffbfb08b5a" />
<rom name="SONICPC (Track 09).bin" size="20848128" crc="8288514e" md5="68742bc1a01adc9e4022cf1f32a2ac30" sha1="ec63c7aca99566e59a8f86a46332e8d74ce168d9" />
<rom name="SONICPC (Track 10).bin" size="14655312" crc="6dd2cc39" md5="9e4556da23c52f20c862d14e5273fbac" sha1="e028e6ad6d94734bcb9f1f6a2fac1253c9a10791" />
<rom name="SONICPC (Track 11).bin" size="14311920" crc="c7636722" md5="c4d67db7569b16f5be3d7e998f0214bd" sha1="ce58a82bfbd9d0dd9ef6db6ce3654ffeda3f4428" />
<rom name="SONICPC (Track 12).bin" size="18719568" crc="569f9b8d" md5="3a6bea9546a92db642c62a8009c8ecbd" sha1="78b92071acd33675137e67395b3530ace98d509e" />
<rom name="SONICPC (Track 13).bin" size="14194320" crc="6bac75d0" md5="1f7f65d59c3b6da08715281a5bc1f0d7" sha1="4ef3371a6521b0a6e75ae799166214ab679b6ba4" />
<rom name="SONICPC (Track 14).bin" size="12035184" crc="52b7f559" md5="4fce3c1dc8f2b0e876775064e51f06cc" sha1="8a413a272fdca068e224eb3db670ff4cff4101f1" />
<rom name="SONICPC (Track 15).bin" size="16753296" crc="6ae6a933" md5="094962240e01a4386f4f3d46badb7724" sha1="d3f217708552fa9eaed44656e57711c8a5659a74" />
<rom name="SONICPC (Track 16).bin" size="11501280" crc="d6b22031" md5="4ef32556decb01f8642eb86ebabb0e8c" sha1="f2a549879390cee5ba27c47a2e80763867b7990e" />
<rom name="SONICPC (Track 17).bin" size="14627088" crc="77804511" md5="0c39aa71555ea38017625ba3fcec89da" sha1="a274f5b7be0ef02d849f053a9c23075d95d7ec06" />
<rom name="SONICPC (Track 18).bin" size="20850480" crc="5937c771" md5="efb9f63214743ee1ce3e1a16cd1ee49e" sha1="9d0323b268bf14eb769b4e273fe0957395e86433" />
<rom name="SONICPC (Track 19).bin" size="13441680" crc="8f34572b" md5="d22a1b7481f4f8aa15fc1c91e75941ca" sha1="95dc66a4b4c7e106838837bd5f3f665ddaf45c29" />
<rom name="SONICPC (Track 20).bin" size="12373872" crc="6c55a368" md5="3e21d3b0bff4ab59b4e0f8884af27a52" sha1="5be697dc8b9a9ab67b6c70b119c3b5b280d4ded4" />
<rom name="SONICPC (Track 21).bin" size="15546720" crc="e1dc4c57" md5="98115b09823676dbcfedf1452f6b413c" sha1="0a6317d6cbe372200fa790a36eb20fff1697ab72" />
<rom name="SONICPC (Track 22).bin" size="12192768" crc="90c7820d" md5="dc337ba88f10372c5eef90da2c3368dc" sha1="23ed5c622ed3859b082c823dd649a47c78ecc429" />
<rom name="SONICPC (Track 23).bin" size="13429920" crc="89f119de" md5="31b891a49f1b4981965f8750a6a87a30" sha1="3063e2a93c3be30585cc9600ce54f4b0d9420b50" />
<rom name="SONICPC (Track 24).bin" size="14660016" crc="9cd673d1" md5="12312363e33febad109687e0611184fd" sha1="a51cbb6ec3520d26e1c2bd2fc28352a898c80c91" />
<rom name="SONICPC (Track 25).bin" size="15360912" crc="23bacb8d" md5="75adaeb53845f010a79a29947d064843" sha1="72c777f6102d77ebe6725b14e674b7f8ffbcf0fe" />
<rom name="SONICPC (Track 26).bin" size="5752992" crc="06caf170" md5="effdae9cd70cb791f44d8ecde7939ebd" sha1="adaa7d5e265416dfd5780276944ecfa5370c0475" />
<rom name="SONICPC (Track 27).bin" size="5752992" crc="c8bd7ec3" md5="47228ce2a1b6bdc06d344af317a09afd" sha1="7bdbc5a1f717d12c03999f85cf021662f78b02a0" />
<rom name="SONICPC (Track 28).bin" size="2208528" crc="5f295417" md5="6ae15bf5837b48fa45e0d76a07d7237a" sha1="21adfe16aa5042f7cb4c1ed0d0e19c92247be89d" />
<rom name="SONICPC (Track 29).bin" size="6155184" crc="44525a43" md5="7004778a3243ce66a97d6b02114e9b8e" sha1="0093a6186a01a211cc17fabcad09b2e6b1cd9b49" />
<rom name="SONICPC (Track 30).bin" size="6338640" crc="8f769927" md5="66405fe9906593fe30f49195ef90caa1" sha1="6c367e1bdd3c330a9db107f7c49e7121895ece6f" />
<rom name="SONICPC (Track 31).bin" size="2646000" crc="f34fd531" md5="e0284f046d4633325614cee645bd4115" sha1="4a4eeea2239b94be2751898a7048b9ce1d3afda2" />
<rom name="SONICPC (Track 32).bin" size="22082928" crc="9dd41cd5" md5="8f550278fb16c3ee49433df2cff5be33" sha1="70e5b2139058f4266a5140ecc10ae0517c8b1f39" />
<rom name="SONICPC (Track 33).bin" size="22431024" crc="98cbe15d" md5="fbe683ead2246b3b73db5c1db76e50bf" sha1="d8daa7d89235c0578d0dd51965f77feda14d6bf4" />
<rom name="SONICPC (Track 34).bin" size="16767408" crc="9c8605d3" md5="52f955f79a30063ab74010178a79a074" sha1="61fcd1929149fe5b56df4548c2f887dcbd4bc004" />
<rom name="SONICPC (Track 35).bin" size="1455888" crc="5de591e4" md5="3390dfb85e83dacad119d3bee7a2235b" sha1="60fe39bcbd6e1dc873c06aeb0970946228c7be16" />
<rom name="SONICPC (Track 36).bin" size="16010064" crc="3731841a" md5="371567325260d5cafdae741f45712c4b" sha1="11123f04899d6de0cdb0eaf9b89cf5c1f8faa87c" />
<rom name="SONICPC (Track 37).bin" size="15817200" crc="1f26d9db" md5="5e43097d661777363c882dc80215ea6d" sha1="2e5faa8de4e3499b6f3560caff2a4abe981dac09" />
<rom name="SONICPC (Track 38).bin" size="14784672" crc="9b4a3d51" md5="c350d8dea19d6ee631c669e63fb8e327" sha1="02b25561a566925b978326a4ccdbc70008e8d076" />
<rom name="SONICPC (Track 39).bin" size="15629040" crc="5f911745" md5="b4f28f14fff0d0c869dbfc70546afbda" sha1="39d824eb19cfec165249ba325e259c6e5e79abcd" />
<rom name="SONICPC (Track 40).bin" size="19361664" crc="363dd11f" md5="e8edcf3aed3899f3ff31c8c897e0e3d3" sha1="bb030458eaba98113037ea0e11f71f83fba3c242" />
<rom name="SONICPC (Track 41).bin" size="14942256" crc="08d1f953" md5="9b50038b746aa9390c7054cc0398885f" sha1="eac728e0248e8d01f94062340ab789080b38f6a2" />
<rom name="SONICPC (Track 42).bin" size="13288800" crc="9e733fde" md5="a65e9414759728c01308d40cf14a41cd" sha1="012f16a73d312306f466bd0529162bb0f7a1ee38" />

    Cuesheet:

CATALOG 0000000000000
FILE "SONICPC (Track 01).bin" BINARY
  TRACK 01 MODE2/2352
    FLAGS DCP
    INDEX 01 00:00:00
FILE "SONICPC (Track 02).bin" BINARY
  TRACK 02 AUDIO
    FLAGS DCP
    INDEX 00 00:00:00
    INDEX 01 00:02:02
FILE "SONICPC (Track 03).bin" BINARY
  TRACK 03 AUDIO
    FLAGS DCP
    INDEX 00 00:00:00
    INDEX 01 00:01:74
FILE "SONICPC (Track 04).bin" BINARY
  TRACK 04 AUDIO
    FLAGS DCP
    INDEX 00 00:00:00
    INDEX 01 00:01:74
FILE "SONICPC (Track 05).bin" BINARY
  TRACK 05 AUDIO
    FLAGS DCP
    INDEX 00 00:00:00
    INDEX 01 00:01:74
FILE "SONICPC (Track 06).bin" BINARY
  TRACK 06 AUDIO
    FLAGS DCP
    INDEX 00 00:00:00
    INDEX 01 00:01:74
FILE "SONICPC (Track 07).bin" BINARY
  TRACK 07 AUDIO
    FLAGS DCP
    INDEX 00 00:00:00
    INDEX 01 00:01:74
FILE "SONICPC (Track 08).bin" BINARY
  TRACK 08 AUDIO
    FLAGS DCP
    INDEX 00 00:00:00
    INDEX 01 00:01:74
FILE "SONICPC (Track 09).bin" BINARY
  TRACK 09 AUDIO
    FLAGS DCP
    INDEX 00 00:00:00
    INDEX 01 00:01:74
FILE "SONICPC (Track 10).bin" BINARY
  TRACK 10 AUDIO
    FLAGS DCP
    INDEX 00 00:00:00
    INDEX 01 00:01:74
FILE "SONICPC (Track 11).bin" BINARY
  TRACK 11 AUDIO
    FLAGS DCP
    INDEX 00 00:00:00
    INDEX 01 00:01:74
FILE "SONICPC (Track 12).bin" BINARY
  TRACK 12 AUDIO
    FLAGS DCP
    INDEX 00 00:00:00
    INDEX 01 00:01:74
FILE "SONICPC (Track 13).bin" BINARY
  TRACK 13 AUDIO
    FLAGS DCP
    INDEX 00 00:00:00
    INDEX 01 00:01:74
FILE "SONICPC (Track 14).bin" BINARY
  TRACK 14 AUDIO
    FLAGS DCP
    INDEX 00 00:00:00
    INDEX 01 00:01:74
FILE "SONICPC (Track 15).bin" BINARY
  TRACK 15 AUDIO
    FLAGS DCP
    INDEX 00 00:00:00
    INDEX 01 00:01:74
FILE "SONICPC (Track 16).bin" BINARY
  TRACK 16 AUDIO
    FLAGS DCP
    INDEX 00 00:00:00
    INDEX 01 00:01:74
FILE "SONICPC (Track 17).bin" BINARY
  TRACK 17 AUDIO
    FLAGS DCP
    INDEX 00 00:00:00
    INDEX 01 00:01:74
FILE "SONICPC (Track 18).bin" BINARY
  TRACK 18 AUDIO
    FLAGS DCP
    INDEX 00 00:00:00
    INDEX 01 00:01:74
FILE "SONICPC (Track 19).bin" BINARY
  TRACK 19 AUDIO
    FLAGS DCP
    INDEX 00 00:00:00
    INDEX 01 00:01:74
FILE "SONICPC (Track 20).bin" BINARY
  TRACK 20 AUDIO
    FLAGS DCP
    INDEX 00 00:00:00
    INDEX 01 00:01:74
FILE "SONICPC (Track 21).bin" BINARY
  TRACK 21 AUDIO
    FLAGS DCP
    INDEX 00 00:00:00
    INDEX 01 00:01:74
FILE "SONICPC (Track 22).bin" BINARY
  TRACK 22 AUDIO
    FLAGS DCP
    INDEX 00 00:00:00
    INDEX 01 00:01:74
FILE "SONICPC (Track 23).bin" BINARY
  TRACK 23 AUDIO
    FLAGS DCP
    INDEX 00 00:00:00
    INDEX 01 00:01:74
FILE "SONICPC (Track 24).bin" BINARY
  TRACK 24 AUDIO
    FLAGS DCP
    INDEX 00 00:00:00
    INDEX 01 00:01:74
FILE "SONICPC (Track 25).bin" BINARY
  TRACK 25 AUDIO
    FLAGS DCP
    INDEX 00 00:00:00
    INDEX 01 00:01:74
FILE "SONICPC (Track 26).bin" BINARY
  TRACK 26 AUDIO
    FLAGS DCP
    INDEX 00 00:00:00
    INDEX 01 00:01:74
FILE "SONICPC (Track 27).bin" BINARY
  TRACK 27 AUDIO
    FLAGS DCP
    INDEX 00 00:00:00
    INDEX 01 00:01:74
FILE "SONICPC (Track 28).bin" BINARY
  TRACK 28 AUDIO
    FLAGS DCP
    INDEX 00 00:00:00
    INDEX 01 00:01:74
FILE "SONICPC (Track 29).bin" BINARY
  TRACK 29 AUDIO
    FLAGS DCP
    INDEX 00 00:00:00
    INDEX 01 00:01:74
FILE "SONICPC (Track 30).bin" BINARY
  TRACK 30 AUDIO
    FLAGS DCP
    INDEX 00 00:00:00
    INDEX 01 00:01:74
FILE "SONICPC (Track 31).bin" BINARY
  TRACK 31 AUDIO
    FLAGS DCP
    INDEX 00 00:00:00
    INDEX 01 00:01:74
FILE "SONICPC (Track 32).bin" BINARY
  TRACK 32 AUDIO
    FLAGS DCP
    INDEX 00 00:00:00
    INDEX 01 00:01:74
FILE "SONICPC (Track 33).bin" BINARY
  TRACK 33 AUDIO
    FLAGS DCP
    INDEX 00 00:00:00
    INDEX 01 00:01:74
FILE "SONICPC (Track 34).bin" BINARY
  TRACK 34 AUDIO
    FLAGS DCP
    INDEX 00 00:00:00
    INDEX 01 00:01:74
FILE "SONICPC (Track 35).bin" BINARY
  TRACK 35 AUDIO
    FLAGS DCP
    INDEX 00 00:00:00
    INDEX 01 00:01:74
FILE "SONICPC (Track 36).bin" BINARY
  TRACK 36 AUDIO
    FLAGS DCP
    INDEX 00 00:00:00
    INDEX 01 00:01:74
FILE "SONICPC (Track 37).bin" BINARY
  TRACK 37 AUDIO
    FLAGS DCP
    INDEX 00 00:00:00
    INDEX 01 00:01:74
FILE "SONICPC (Track 38).bin" BINARY
  TRACK 38 AUDIO
    FLAGS DCP
    INDEX 00 00:00:00
    INDEX 01 00:01:74
FILE "SONICPC (Track 39).bin" BINARY
  TRACK 39 AUDIO
    FLAGS DCP
    INDEX 00 00:00:00
    INDEX 01 00:01:74
FILE "SONICPC (Track 40).bin" BINARY
  TRACK 40 AUDIO
    FLAGS DCP
    INDEX 00 00:00:00
    INDEX 01 00:01:74
FILE "SONICPC (Track 41).bin" BINARY
  TRACK 41 AUDIO
    FLAGS DCP
    INDEX 00 00:00:00
    INDEX 01 00:01:74
FILE "SONICPC (Track 42).bin" BINARY
  TRACK 42 AUDIO
    FLAGS DCP
    INDEX 00 00:00:00
    INDEX 01 00:01:74

    Write Offset: 0