Disc 1
Log: https://cdn.discordapp.com/attachments/ … _DISC_1.7z

Common Disc Info:
    Title: Myst III - Exile
    Foreign Title (Non-latin): (OPTIONAL)
    Disc Number / Letter: Disc 1
    Disc Title: (OPTIONAL)
    System: IBM PC Compatible
    Media Type: CD-ROM
    Category: Games
    Region: World
    Languages: Klingon (CHANGE THIS)
    Disc Serial: (REQUIRED, IF EXISTS)

    Ringcode Information:
        Mastering Code (laser branded/etched): 650331-CD1 + + B9190-01
        Mastering SID Code: IFPI LB41
        Data-Side Mould SID Code: (REQUIRED, IF EXISTS)
        Label-Side Mould SID Code: (REQUIRED, IF EXISTS)
        Additional Mould: (REQUIRED, IF EXISTS)
        Toolstamp or Mastering Code (engraved/stamped): A15
    Barcode: 0 08888 65033 1
    Error Count: 585
    Comments: [T:ISBN] (OPTIONAL)
    Contents: (OPTIONAL)

Version and Editions:
    Version: (REQUIRED, IF EXISTS)
    Edition/Release: Original

Extras:
    Primary Volume Descriptor (PVD):

0320 : 20 20 20 20 20 20 20 20  20 20 20 20 20 32 30 30                200
0330 : 31 30 36 31 33 31 33 35  34 32 32 30 30 00 32 30   1061313542200.20
0340 : 30 31 30 36 31 33 31 33  35 37 34 33 30 30 00 00   01061313574300..
0350 : 00 00 00 00 00 00 00 00  00 00 00 00 00 00 00 00   ................
0360 : 00 00 00 00 00 00 00 00  00 00 00 00 00 00 00 00   ................
0370 : 00 01 00 00 00 00 00 00  00 00 00 00 00 00 00 00   ................

Copy Protection:
    Copy Protection:

D:\: SafeDisc 1.5x-2.40
D:\00000001.TMP: SafeDisc 1 or greater
D:\00000409.016: SafeDisc 1
D:\00000409.256: SafeDisc 1
D:\M3.exe: SafeDisc 2.30.031
D:\data1.hdr: CD Check, CD Check
D:\drvmgt.dll: SafeDisc 1.5x-2.40
D:\secdrv.sys: SafeDisc 2.30

Tracks and Write Offsets:
    DAT:

<rom name="EXILE_DISC_1.bin" size="753110400" crc="fac4f9ee" md5="4ec357a4d050120b39e12ee4e25d4cb9" sha1="09abd6eb12c5156c42f759043619c715e2978617" />

    Cuesheet:

FILE "EXILE_DISC_1.bin" BINARY
  TRACK 01 MODE1/2352
    INDEX 01 00:00:00

    Write Offset: -12

Disc 2
Log: https://cdn.discordapp.com/attachments/ … _DISC_2.7z

Common Disc Info:
    Title: Myst III - Exile
    Foreign Title (Non-latin): (OPTIONAL)
    Disc Number / Letter: Disc 2
    Disc Title: (OPTIONAL)
    System: IBM PC Compatible
    Media Type: CD-ROM
    Category: Games
    Region: World
    Languages: Klingon (CHANGE THIS)
    Disc Serial: (REQUIRED, IF EXISTS)

    Ringcode Information:
        Mastering Code (laser branded/etched): 650331-CD2  + +  B9191-01
        Mastering SID Code: IFPI L028
        Data-Side Mould SID Code: IFPI 1086
        Label-Side Mould SID Code: (REQUIRED, IF EXISTS)
        Additional Mould: (REQUIRED, IF EXISTS)
        Toolstamp or Mastering Code (engraved/stamped): (REQUIRED, IF EXISTS)
    Barcode: 0 08888 65033 1
    Error Count: 0
    Comments: [T:ISBN] (OPTIONAL)
    Contents: (OPTIONAL)

Version and Editions:
    Version: (REQUIRED, IF EXISTS)
    Edition/Release: Original

Extras:
    Primary Volume Descriptor (PVD):

0320 : 20 20 20 20 20 20 20 20  20 20 20 20 20 32 30 30                200
0330 : 31 30 36 31 33 31 34 30  39 31 39 30 30 00 32 30   1061314091900.20
0340 : 30 31 30 36 31 33 31 34  30 39 35 31 30 30 00 00   01061314095100..
0350 : 00 00 00 00 00 00 00 00  00 00 00 00 00 00 00 00   ................
0360 : 00 00 00 00 00 00 00 00  00 00 00 00 00 00 00 00   ................
0370 : 00 01 00 00 00 00 00 00  00 00 00 00 00 00 00 00   ................

Copy Protection:
    Copy Protection: None found

Tracks and Write Offsets:
    DAT:

<rom name="EXILE_DISC_2.bin" size="706721904" crc="0b0ab9e1" md5="f9e71e22376542d481d1a8cd950e3761" sha1="8a8fb2b9ccc51d0042bc7f65a14f82576efb169a" />

    Cuesheet:

FILE "EXILE_DISC_2.bin" BINARY
  TRACK 01 MODE1/2352
    INDEX 01 00:00:00

    Write Offset: -12

Disc 3
Log: https://cdn.discordapp.com/attachments/ … _DISC_3.7z

Common Disc Info:
    Title: Myst III - Exile
    Foreign Title (Non-latin): (OPTIONAL)
    Disc Number / Letter: Disc 3
    Disc Title: (OPTIONAL)
    System: IBM PC Compatible
    Media Type: CD-ROM
    Category: Games
    Region: World
    Languages: Klingon (CHANGE THIS)
    Disc Serial: (REQUIRED, IF EXISTS)

    Ringcode Information:
        Mastering Code (laser branded/etched): 650331-CD3  + +  B9192-01
        Mastering SID Code: IFPI LB48
        Data-Side Mould SID Code: IFPI 1075
        Label-Side Mould SID Code: (REQUIRED, IF EXISTS)
        Additional Mould: (REQUIRED, IF EXISTS)
        Toolstamp or Mastering Code (engraved/stamped): A05
    Barcode: 0 08888 65033 1
    Error Count: 0
    Comments: [T:ISBN] (OPTIONAL)
    Contents: (OPTIONAL)

Version and Editions:
    Version: (REQUIRED, IF EXISTS)
    Edition/Release: Original

Extras:
    Primary Volume Descriptor (PVD):

0320 : 20 20 20 20 20 20 20 20  20 20 20 20 20 32 30 30                200
0330 : 31 30 36 31 33 31 34 31  39 34 34 30 30 00 32 30   1061314194400.20
0340 : 30 31 30 36 31 33 31 34  32 30 31 34 30 30 00 00   01061314201400..
0350 : 00 00 00 00 00 00 00 00  00 00 00 00 00 00 00 00   ................
0360 : 00 00 00 00 00 00 00 00  00 00 00 00 00 00 00 00   ................
0370 : 00 01 00 00 00 00 00 00  00 00 00 00 00 00 00 00   ................

Copy Protection:
    Copy Protection: None found

Tracks and Write Offsets:
    DAT:

<rom name="EXILE_DISC_3.bin" size="747717264" crc="d68396b7" md5="9c415c0056ac09275a4932e0dba26beb" sha1="a2137ed7350e7781a4f46a335ceb6bf9e8fde6b7" />

    Cuesheet:

FILE "EXILE_DISC_3.bin" BINARY
  TRACK 01 MODE1/2352
    INDEX 01 00:00:00

    Write Offset: -12

Disc 4
Log: https://cdn.discordapp.com/attachments/ … _DISC_4.7z

Common Disc Info:
    Title: Myst III - Exile
    Foreign Title (Non-latin): (OPTIONAL)
    Disc Number / Letter: Disc 4
    Disc Title: (OPTIONAL)
    System: IBM PC Compatible
    Media Type: CD-ROM
    Category: Games
    Region: World
    Languages: Klingon (CHANGE THIS)
    Disc Serial: (REQUIRED, IF EXISTS)

    Ringcode Information:
        Mastering Code (laser branded/etched): 650331-CD4  + +  B9180-01
        Mastering SID Code: IFPI L028
        Data-Side Mould SID Code: IFPI 1076
        Label-Side Mould SID Code: (REQUIRED, IF EXISTS)
        Additional Mould: (REQUIRED, IF EXISTS)
        Toolstamp or Mastering Code (engraved/stamped): A07
    Barcode: 0 08888 65033 1
    Error Count: 0
    Comments: [T:ISBN] (OPTIONAL)
    Contents: (OPTIONAL)

Version and Editions:
    Version: (REQUIRED, IF EXISTS)
    Edition/Release: Original

Extras:
    Primary Volume Descriptor (PVD):

0320 : 20 20 20 20 20 20 20 20  20 20 20 20 20 32 30 30                200
0330 : 31 30 36 31 33 31 34 33  31 30 35 30 30 00 32 30   1061314310500.20
0340 : 30 31 30 36 31 33 31 34  33 32 30 39 30 30 00 00   01061314320900..
0350 : 00 00 00 00 00 00 00 00  00 00 00 00 00 00 00 00   ................
0360 : 00 00 00 00 00 00 00 00  00 00 00 00 00 00 00 00   ................
0370 : 00 01 00 00 00 00 00 00  00 00 00 00 00 00 00 00   ................

Copy Protection:
    Copy Protection: None found

Tracks and Write Offsets:
    DAT:

<rom name="EXILE_DISC_4.bin" size="568723008" crc="b6745e35" md5="db06458dd4cdb8f44f937be2a946863a" sha1="814b809fbdd8c8667c0d81e17e067185efce478f" />

    Cuesheet:

FILE "EXILE_DISC_4.bin" BINARY
  TRACK 01 MODE1/2352
    INDEX 01 00:00:00

    Write Offset: -12