1 (edited by NovaAurora 2020-06-30 02:45:29)

Came bundled with BOTW Special Edition US
Log: https://cdn.discordapp.com/attachments/ … dio_CD.zip

Common Disc Info:
    Title: The Legend of Zelda: Breath of the Wild - Sound Selection
    Foreign Title (Non-latin): (OPTIONAL)
    Disc Number / Letter: (OPTIONAL)
    Disc Title: (OPTIONAL)
    System: Audio CD
    Media Type: CD-ROM
    Category: Audio
    Region: World
    Languages: Klingon (CHANGE THIS)
    Disc Serial: (REQUIRED, IF EXISTS)

    Ringcode Information:
        Mastering Code (laser branded/etched): 105049 01/18/2017 03:32:28.PM #170750
        Mastering SID Code: IFPI LN08
        Data-Side Mould SID Code: IFPI JI01
        Label-Side Mould SID Code: (REQUIRED, IF EXISTS)
        Additional Mould: (REQUIRED, IF EXISTS)
        Toolstamp or Mastering Code (engraved/stamped): 02
    Barcode: (OPTIONAL)
    Error Count: Error retrieving error count
    Comments: (OPTIONAL)
    Contents: (OPTIONAL)

Version and Editions:
    Version: (REQUIRED, IF EXISTS)
    Edition/Release: Breath of the Wild Special Edition

Extras:
    Primary Volume Descriptor (PVD): Disc has no PVD

Tracks and Write Offsets:
    DAT:

<rom name="Zelda Audio CD (Track 01).bin" size="20991600" crc="4d1e7126" md5="6471a2ce4ec4e91cedf7e1a761ef3ddc" sha1="bdca2eb6d718ac622a77a078308c575758e48386" />
<rom name="Zelda Audio CD (Track 02).bin" size="29948016" crc="42eb4f1a" md5="c1a197529cb687697b926991d5832867" sha1="42b9f88246d8d3e773ae818010d2d38295c5ba8c" />
<rom name="Zelda Audio CD (Track 03).bin" size="21614880" crc="9e49a88f" md5="9a0be251385e9483f68c3a9d53cfe77c" sha1="d988a11a6dc5703a4fdfdf4f1865dff1861b7b75" />
<rom name="Zelda Audio CD (Track 04).bin" size="43507296" crc="2eafac10" md5="712ac20a9a0e388312982e822ad8eda1" sha1="59406b0db5f30ae004d401c483b530f79632054b" />
<rom name="Zelda Audio CD (Track 05).bin" size="15955968" crc="b9439fd6" md5="f5875808eb672caaef565f78f1804737" sha1="811e676edf727d92faaf5f22618624ec088d9ce0" />
<rom name="Zelda Audio CD (Track 06).bin" size="20295408" crc="d8531852" md5="027f518bbd1b3a8e6c62a86336baa0e0" sha1="ed2e9442f4173f4f1bba58ff6aa9e7d37bc071d3" />
<rom name="Zelda Audio CD (Track 07).bin" size="20116656" crc="f185f570" md5="7aba073100cb4ce5761e68a7a54ba199" sha1="f5ef183a71cdfd8bd3a96f62b2f967521cc7fe81" />
<rom name="Zelda Audio CD (Track 08).bin" size="21751296" crc="5d36b1c8" md5="63d42743a633958f93a932a1916e03ba" sha1="b7fdda10eccb90d481d31ae7d889b1a251501185" />
<rom name="Zelda Audio CD (Track 09).bin" size="22960224" crc="9a11110a" md5="77759a7e486bccb11119622b778f8de9" sha1="a9ef384b708612a0fdbead33bd9ae8915876b525" />
<rom name="Zelda Audio CD (Track 10).bin" size="20714064" crc="1c2441d0" md5="af67aed6886bd28541bc58fb95bd2f66" sha1="9e209f7f6d3f3245e18f853220d9f461e9c7aca3" />
<rom name="Zelda Audio CD (Track 11).bin" size="39125520" crc="748a5f11" md5="aad18d138a5089623cbe5365d4bf2115" sha1="c676784b784ce287190c2ddc720846fa4518db87" />
<rom name="Zelda Audio CD (Track 12).bin" size="25726176" crc="619a381c" md5="a7d43e52b46ebeae868cd394b88973ca" sha1="1a97a8b3682f35a946c4807d2e735d9feab771ad" />
<rom name="Zelda Audio CD (Track 13).bin" size="12700800" crc="3ad369f8" md5="c7302b4893364d70d4f5b6701e134caf" sha1="34bd7a59c2bdf34d51b716af2f9eadb6f827a1da" />
<rom name="Zelda Audio CD (Track 14).bin" size="41331696" crc="beb65998" md5="e8f16f28978be9923ae737b8974e6992" sha1="a4efb2e5a42e5ee50eeb679250e25375e4860010" />
<rom name="Zelda Audio CD (Track 15).bin" size="48314784" crc="69e26240" md5="0932bf91572b61eec443c23d778a4b2f" sha1="c720c5a42909fd5a9a3a4a4851a39d9095336d96" />
<rom name="Zelda Audio CD (Track 16).bin" size="40541424" crc="b8a433d0" md5="c12e1cbfd5c9a039b8ea89fad7289ab2" sha1="7240f7cfc3df3796c0776f95ff1c9bb16ed98392" />
<rom name="Zelda Audio CD (Track 17).bin" size="49749504" crc="99048ad1" md5="00cea5f53c3f50f9eed464f26c93b061" sha1="8a1f9e6e2f23a58f795c26e972e49474eb4268d3" />
<rom name="Zelda Audio CD (Track 18).bin" size="30731232" crc="e0e5fdd7" md5="c3ee383d34e657ddfc7a44e1b38aadaf" sha1="6d569af393f790a1455c28e70335ea164d8251aa" />
<rom name="Zelda Audio CD (Track 19).bin" size="37780176" crc="36ffe8b4" md5="64479efc7de007a63f063941482198e6" sha1="d89b6799e7e93e54cd9a369f2f7153be040ca070" />
<rom name="Zelda Audio CD (Track 20).bin" size="39530064" crc="7ce08779" md5="248422eabafa74863cf19c6594e6c061" sha1="45a3ab7b1ff74d9ae3a210f7d93fe66c54d74aaa" />
<rom name="Zelda Audio CD (Track 21).bin" size="49363776" crc="d0cf3762" md5="382e77f786b774f3c4887dc0f98a7672" sha1="484da308ed6de2cf6030fd5b2d70ec63f7abbba8" />
<rom name="Zelda Audio CD (Track 22).bin" size="28943712" crc="a04cd51d" md5="6ed3f95a3bf16ad9de730fbb3db2b873" sha1="9ac6fecc35d610eb72190c666a7ef0759373d6d4" />
<rom name="Zelda Audio CD (Track 23).bin" size="36448944" crc="d35aaafc" md5="5fdaafa7218adc5ac0bbaf641fb91ad1" sha1="79cabd8ae007370f13a105ad54570bd81b5d9c74" />
<rom name="Zelda Audio CD (Track 24).bin" size="23581152" crc="2e1d7789" md5="7c3e4b7d5651c26c2aba0f28f31088d9" sha1="393c336ab68abcbc4666400da6dbc20ff104aebf" />

    Cuesheet:

TITLE "The Legend of Zelda: Breath of the Wild Sound Selection"
FILE "Zelda Audio CD (Track 01).bin" BINARY
  TRACK 01 AUDIO
    TITLE "Main Theme"
    INDEX 01 00:00:00
FILE "Zelda Audio CD (Track 02).bin" BINARY
  TRACK 02 AUDIO
    TITLE "Field (Day)"
    INDEX 00 00:00:00
    INDEX 01 00:02:00
FILE "Zelda Audio CD (Track 03).bin" BINARY
  TRACK 03 AUDIO
    TITLE "Battle (Field)"
    INDEX 00 00:00:00
    INDEX 01 00:02:00
FILE "Zelda Audio CD (Track 04).bin" BINARY
  TRACK 04 AUDIO
    TITLE "Shrine"
    INDEX 00 00:00:00
    INDEX 01 00:02:00
FILE "Zelda Audio CD (Track 05).bin" BINARY
  TRACK 05 AUDIO
    TITLE "Battle (Shrine)"
    INDEX 00 00:00:00
    INDEX 01 00:02:00
FILE "Zelda Audio CD (Track 06).bin" BINARY
  TRACK 06 AUDIO
    TITLE "Riding (Day)"
    INDEX 00 00:00:00
    INDEX 01 00:02:00
FILE "Zelda Audio CD (Track 07).bin" BINARY
  TRACK 07 AUDIO
    TITLE "Riding (Night)"
    INDEX 00 00:00:00
    INDEX 01 00:02:00
FILE "Zelda Audio CD (Track 08).bin" BINARY
  TRACK 08 AUDIO
    TITLE "The Temple of Time"
    INDEX 00 00:00:00
    INDEX 01 00:02:00
FILE "Zelda Audio CD (Track 09).bin" BINARY
  TRACK 09 AUDIO
    TITLE "Guardian Battle"
    INDEX 00 00:00:00
    INDEX 01 00:02:00
FILE "Zelda Audio CD (Track 10).bin" BINARY
  TRACK 10 AUDIO
    TITLE "Talus Battle"
    INDEX 00 00:00:00
    INDEX 01 00:02:00
FILE "Zelda Audio CD (Track 11).bin" BINARY
  TRACK 11 AUDIO
    TITLE "Hinox Battle"
    INDEX 00 00:00:00
    INDEX 01 00:02:00
FILE "Zelda Audio CD (Track 12).bin" BINARY
  TRACK 12 AUDIO
    TITLE "Stables"
    INDEX 00 00:00:00
    INDEX 01 00:02:00
FILE "Zelda Audio CD (Track 13).bin" BINARY
  TRACK 13 AUDIO
    TITLE "Kass's Theme"
    INDEX 00 00:00:00
    INDEX 01 00:02:00
FILE "Zelda Audio CD (Track 14).bin" BINARY
  TRACK 14 AUDIO
    TITLE "Kakariko Village (Day)"
    INDEX 00 00:00:00
    INDEX 01 00:02:00
FILE "Zelda Audio CD (Track 15).bin" BINARY
  TRACK 15 AUDIO
    TITLE "Kakariko Village (Night)"
    INDEX 00 00:00:00
    INDEX 01 00:02:00
FILE "Zelda Audio CD (Track 16).bin" BINARY
  TRACK 16 AUDIO
    TITLE "Rito Village (Day)"
    INDEX 00 00:00:00
    INDEX 01 00:02:00
FILE "Zelda Audio CD (Track 17).bin" BINARY
  TRACK 17 AUDIO
    TITLE "Rito Village (Night)"
    INDEX 00 00:00:00
    INDEX 01 00:02:00
FILE "Zelda Audio CD (Track 18).bin" BINARY
  TRACK 18 AUDIO
    TITLE "Goron City (Day)"
    INDEX 00 00:00:00
    INDEX 01 00:02:00
FILE "Zelda Audio CD (Track 19).bin" BINARY
  TRACK 19 AUDIO
    TITLE "Goron City (Night)"
    INDEX 00 00:00:00
    INDEX 01 00:02:00
FILE "Zelda Audio CD (Track 20).bin" BINARY
  TRACK 20 AUDIO
    TITLE "Zora's Domain (Day)"
    INDEX 00 00:00:00
    INDEX 01 00:02:00
FILE "Zelda Audio CD (Track 21).bin" BINARY
  TRACK 21 AUDIO
    TITLE "Zora's Domain (Night)"
    INDEX 00 00:00:00
    INDEX 01 00:02:00
FILE "Zelda Audio CD (Track 22).bin" BINARY
  TRACK 22 AUDIO
    TITLE "Gerudo Town (Day)"
    INDEX 00 00:00:00
    INDEX 01 00:02:00
FILE "Zelda Audio CD (Track 23).bin" BINARY
  TRACK 23 AUDIO
    TITLE "Gerudo Town (Night)"
    INDEX 00 00:00:00
    INDEX 01 00:02:00
FILE "Zelda Audio CD (Track 24).bin" BINARY
  TRACK 24 AUDIO
    TITLE "Main Theme (Live)"
    INDEX 00 00:00:00
    INDEX 01 00:02:00

    Write Offset: 0