1 (edited by NovaAurora 2020-06-30 02:36:47)

PC Gamer March 1998
Log: https://cdn.discordapp.com/attachments/ … ER3_12.zip

Common Disc Info:
    Title: PC Gamer March 1998
    Foreign Title (Non-latin): (OPTIONAL)
    Disc Number / Letter: Disc 3.12
    Disc Title: (OPTIONAL)
    System: IBM PC Compatible
    Media Type: CD-ROM
    Category: Games
    Region: World
    Languages: Klingon (CHANGE THIS)
    Disc Serial: (REQUIRED, IF EXISTS)

    Ringcode Information:
        Mastering Code (laser branded/etched): 160870-W1-8005-R  P C GAMER  *MARCH 98*
        Mastering SID Code: IFPI L792
        Data-Side Mould SID Code: (REQUIRED, IF EXISTS)
        Label-Side Mould SID Code: (REQUIRED, IF EXISTS)
        Additional Mould: (REQUIRED, IF EXISTS)
        Toolstamp or Mastering Code (engraved/stamped): (REQUIRED, IF EXISTS)
    Barcode: (OPTIONAL)
    Error Count: 0
    Comments: [T:ISBN] (OPTIONAL)
    Contents:

DEMOS:

Wing Commander Prophecy

Turok

Jack Nicklaus 5

Grand Theft Auto

Oddworld: Abe's Oddyssee

Incubation Levels

Falcon 4.0

Sid Meyer's Gettysburg!

Dead Lock II

Sanitarium

Extreme Tactics

Version and Editions:
    Version: (REQUIRED, IF EXISTS)
    Edition/Release: Original

Extras:
    Primary Volume Descriptor (PVD):

0320 : 20 20 20 20 20 20 20 20  20 20 20 20 20 31 39 39                199
0330 : 37 31 32 33 31 31 32 30  38 34 30 30 30 00 31 39   7123112084000.19
0340 : 39 37 31 32 33 31 31 32  30 38 34 30 30 30 00 30   97123112084000.0
0350 : 30 30 30 30 30 30 30 30  30 30 30 30 30 30 30 00   000000000000000.
0360 : 30 30 30 30 30 30 30 30  30 30 30 30 30 30 30 30   0000000000000000
0370 : 00 01 00 00 00 00 00 00  00 00 00 00 00 00 00 00   ................

Copy Protection:
    Copy Protection: 

Tracks and Write Offsets:
    DAT:

<rom name="PCGAMER3_12.bin" size="763692048" crc="04c4aa0c" md5="85f0b0d1db6b331c9ae3d1467ff5e0ee" sha1="c161861fb49ab625ee923f7d71b6a383be0568d4" />

    Cuesheet:

FILE "PCGAMER3_12.bin" BINARY
  TRACK 01 MODE1/2352
    INDEX 01 00:00:00

    Write Offset: 0

2 (edited by NovaAurora 2020-06-30 02:37:00)

PC Gamer April 1998
Log: https://cdn.discordapp.com/attachments/ … ER3_13.zip

Common Disc Info:
    Title: PC Gamer April 1998 Disc 3.13
    Foreign Title (Non-latin): (OPTIONAL)
    Disc Number / Letter: (OPTIONAL)
    Disc Title: (OPTIONAL)
    System: IBM PC Compatible
    Media Type: CD-ROM
    Category: Games
    Region: World
    Languages: Klingon (CHANGE THIS)
    Disc Serial: (REQUIRED, IF EXISTS)

    Ringcode Information:
        Mastering Code (laser branded/etched): 161392-W4-8030-R  PC GAMER  *APRIL 1998*
        Mastering SID Code: IFPI L792
        Data-Side Mould SID Code: (REQUIRED, IF EXISTS)
        Label-Side Mould SID Code: (REQUIRED, IF EXISTS)
        Additional Mould: (REQUIRED, IF EXISTS)
        Toolstamp or Mastering Code (engraved/stamped): (REQUIRED, IF EXISTS)
    Barcode: (OPTIONAL)
    Error Count: 0
    Comments: [T:ISBN] (OPTIONAL)
    Contents: (OPTIONAL)

Version and Editions:
    Version: (REQUIRED, IF EXISTS)
    Edition/Release: Original

Extras:
    Primary Volume Descriptor (PVD):

0320 : 20 20 20 20 20 20 20 20  20 20 20 20 20 31 39 39                199
0330 : 38 30 31 32 38 31 34 34  31 31 37 30 30 00 31 39   8012814411700.19
0340 : 39 38 30 31 32 38 31 34  34 31 31 37 30 30 00 30   98012814411700.0
0350 : 30 30 30 30 30 30 30 30  30 30 30 30 30 30 30 00   000000000000000.
0360 : 30 30 30 30 30 30 30 30  30 30 30 30 30 30 30 30   0000000000000000
0370 : 00 01 00 00 00 00 00 00  00 00 00 00 00 00 00 00   ................

Copy Protection:
    Copy Protection: D:\STRAT\data1.cab: CD Check, SafeLock

Tracks and Write Offsets:
    DAT:

<rom name="PCGAMER3_13.bin" size="739170096" crc="3d0cfd5e" md5="00ac8ea70562f601b50485e6488f6e14" sha1="3349b6e77954e5ce49fc2cfba370f31b10cc30a6" />

    Cuesheet:

CATALOG 0000000000000
FILE "PCGAMER3_13.bin" BINARY
  TRACK 01 MODE1/2352
    INDEX 01 00:00:00

    Write Offset: 0

3 (edited by NovaAurora 2020-06-30 02:37:33)

PC Gamer October 1998
Log: https://cdn.discordapp.com/attachments/ … MER4_4.zip

Common Disc Info:
    Title: PC Gamer October 1998
    Foreign Title (Non-latin): (OPTIONAL)
    Disc Number / Letter: DISC 4.4
    Disc Title: (OPTIONAL)
    System: IBM PC Compatible
    Media Type: CD-ROM
    Category: Games
    Region: World
    Languages: Klingon (CHANGE THIS)
    Disc Serial: (REQUIRED, IF EXISTS)

    Ringcode Information:
        Mastering Code (laser branded/etched): 167059-4W2-8219-R  PC GAMER-SIN  **OCT 98-1**
        Mastering SID Code: IFPI L793
        Data-Side Mould SID Code: IFPI 2D10
        Label-Side Mould SID Code: (REQUIRED, IF EXISTS)
        Additional Mould: (REQUIRED, IF EXISTS)
        Toolstamp or Mastering Code (engraved/stamped): (REQUIRED, IF EXISTS)
    Barcode: (OPTIONAL)
    Error Count: 0
    Comments: [T:ISBN] (OPTIONAL)
    Contents: (OPTIONAL)

Version and Editions:
    Version: (REQUIRED, IF EXISTS)
    Edition/Release: Original

Extras:
    Primary Volume Descriptor (PVD):

0320 : 20 20 20 20 20 20 20 20  20 20 20 20 20 31 39 39                199
0330 : 38 30 38 30 33 31 33 35  36 30 34 00 00 04 31 39   80803135604...19
0340 : 39 38 30 38 30 33 31 33  35 36 30 34 00 00 04 32   980803135604...2
0350 : 39 39 38 30 38 30 33 31  33 35 36 30 34 00 00 04   9980803135604...
0360 : 31 39 39 38 30 38 30 33  31 33 35 36 30 34 00 00   19980803135604..
0370 : 04 01 00 00 00 00 00 00  00 00 00 00 00 00 00 00   ................

Copy Protection:
    Copy Protection: 

Tracks and Write Offsets:
    DAT:

<rom name="PCGAMER4_4.bin" size="750584352" crc="c65df629" md5="9b0bacd4c509aa1c9015650d0d8a5a08" sha1="25ae854fc7517aee625b27ba2cc0dc64e0d156f7" />

    Cuesheet:

FILE "PCGAMER4_4.bin" BINARY
  TRACK 01 MODE1/2352
    INDEX 01 00:00:00

    Write Offset: -12

4 (edited by NovaAurora 2020-06-30 02:37:47)

PC Gamer November 2000
Log: https://cdn.discordapp.com/attachments/ … pcg6_1.zip

Common Disc Info:
    Title: PC Gamer November 2000
    Foreign Title (Non-latin): (OPTIONAL)
    Disc Number / Letter: Disc 5.14
    Disc Title: (OPTIONAL)
    System: IBM PC Compatible
    Media Type: CD-ROM
    Category: Games
    Region: World
    Languages: Klingon (CHANGE THIS)
    Disc Serial: (REQUIRED, IF EXISTS)

    Ringcode Information:
        Mastering Code (laser branded/etched): PCGNOV00 - D1  *05*  DISCTRONICS MADE IN THE U.S.A.  20000908
        Mastering SID Code: IFPI L793
        Data-Side Mould SID Code: (REQUIRED, IF EXISTS)
        Label-Side Mould SID Code: (REQUIRED, IF EXISTS)
        Additional Mould: (REQUIRED, IF EXISTS)
        Toolstamp or Mastering Code (engraved/stamped): IFPI 2D40
    Barcode: (OPTIONAL)
    Error Count: 0
    Comments: [T:ISBN] (OPTIONAL)
    Contents:

DEMOS:

Heavy Metal F.A.K.K. 2

Age of Empires II: The Conquerers

Tony Hawk's Pro Skater 2

Stupid Invaders

NASCAR Heat

Sydney 2000

Half-Life: Opposing Force CTF

EarthLink

Version and Editions:
    Version: (REQUIRED, IF EXISTS)
    Edition/Release: Original

Extras:
    Primary Volume Descriptor (PVD):

0320 : 20 20 20 20 20 20 20 20  20 20 20 20 20 32 30 30                200
0330 : 30 30 38 33 31 31 30 34  36 34 33 30 30 00 32 30   0083110464300.20
0340 : 30 30 30 38 33 31 31 30  34 36 34 33 30 30 00 30   00083110464300.0
0350 : 30 30 30 30 30 30 30 30  30 30 30 30 30 30 30 00   000000000000000.
0360 : 30 30 30 30 30 30 30 30  30 30 30 30 30 30 30 30   0000000000000000
0370 : 00 01 00 00 00 00 00 00  00 00 00 00 00 00 00 00   ................

Copy Protection:
    Copy Protection: 

Tracks and Write Offsets:
    DAT:

<rom name="pcg6_1.bin" size="761382384" crc="6e793c46" md5="0fba2a6dcddb15588502a023eef5cf72" sha1="cd692a4f2761ef3904f55ddf4ba5e5e34c8adc7e" />

    Cuesheet:

FILE "pcg6_1.bin" BINARY
  TRACK 01 MODE2/2352
    INDEX 01 00:00:00

    Write Offset: -12

5 (edited by NovaAurora 2020-06-30 02:37:58)

PC Gamer February 2001
Log: https://cdn.discordapp.com/attachments/ … PCG6_4.zip

Common Disc Info:
    Title: PC Gamer February 2001
    Foreign Title (Non-latin): (OPTIONAL)
    Disc Number / Letter: (OPTIONAL)
    Disc Title: Disc 6.4
    System: IBM PC Compatible
    Media Type: CD-ROM
    Category: Games
    Region: World
    Languages: Klingon (CHANGE THIS)
    Disc Serial: (REQUIRED, IF EXISTS)

    Ringcode Information:
        Mastering Code (laser branded/etched): PCGFEB 01 *01*   DISCTRONICS MADE IN THE U.S.A.
        Mastering SID Code: IFPI L793
        Data-Side Mould SID Code: (REQUIRED, IF EXISTS)
        Label-Side Mould SID Code: (REQUIRED, IF EXISTS)
        Additional Mould: (REQUIRED, IF EXISTS)
        Toolstamp or Mastering Code (engraved/stamped): IFPI 2D4P
    Barcode: (OPTIONAL)
    Error Count: 0
    Comments: [T:ISBN] (OPTIONAL)
    Contents: (OPTIONAL)

Version and Editions:
    Version: (REQUIRED, IF EXISTS)
    Edition/Release: Original

Extras:
    Primary Volume Descriptor (PVD):

0320 : 20 20 20 20 20 20 20 20  20 20 20 20 20 32 30 30                200
0330 : 30 31 32 30 31 31 30 33  39 33 34 30 30 00 32 30   0120110393400.20
0340 : 30 30 31 32 30 31 31 30  33 39 33 34 30 30 00 30   00120110393400.0
0350 : 30 30 30 30 30 30 30 30  30 30 30 30 30 30 30 00   000000000000000.
0360 : 30 30 30 30 30 30 30 30  30 30 30 30 30 30 30 30   0000000000000000
0370 : 00 01 00 00 00 00 00 00  00 00 00 00 00 00 00 00   ................

Copy Protection:
    Copy Protection: 

Tracks and Write Offsets:
    DAT:

<rom name="PCG6_4.bin" size="782524512" crc="2c3a6b84" md5="3f1df52dc14996b4d71ce2af544f9469" sha1="08924105375968cc2716a22779874e690cb408b2" />

    Cuesheet:

FILE "PCG6_4.bin" BINARY
  TRACK 01 MODE2/2352
    INDEX 01 00:00:00

    Write Offset: -12