Match: http://redump.org/disc/46332/
Logs: https://drive.google.com/open?id=10QPH8 … RBaV-m9C0I

Common Disc Info:
    Title: Syndicate Wars
    Foreign Title (Non-latin): 
    Disc Number / Letter: (OPTIONAL)
    Disc Title: (OPTIONAL)
    System: IBM PC Compatible
    Media Type: CD-ROM
    Category: Games
    Matching IDs: 46332
    Region: Europe
    Languages: English, French, German, Italian, Spanish, Swedish
    Disc Serial: BFX05100371D

    Ringcode Information:
        Mastering Code (laser branded/etched): PROSOFT LOGISTICS 041-01EA SYNDICATE WARS ENG
        Mastering SID Code: (REQUIRED, IF EXISTS)
        Data-Side Mould SID Code: (REQUIRED, IF EXISTS)
        Label-Side Mould SID Code: (REQUIRED, IF EXISTS)
        Additional Mould: (REQUIRED, IF EXISTS)
        Toolstamp or Mastering Code (engraved/stamped): (REQUIRED, IF EXISTS)
    Barcode: 5 030930 371449
    Error Count: 0
    Comments: [T:ISBN] (OPTIONAL)
    Contents: (OPTIONAL)

Version and Editions:
    Version: (REQUIRED, IF EXISTS)
    Edition/Release: Original

Extras:
    Primary Volume Descriptor (PVD):

0320 : 20 20 20 20 20 20 20 20  20 20 20 20 20 31 39 39                199
0330 : 36 30 39 32 36 31 38 33  32 31 39 30 30 00 31 39   6092618321900.19
0340 : 39 36 30 39 32 36 31 38  33 32 31 39 30 30 00 00   96092618321900..
0350 : 00 00 00 00 00 00 00 00  00 00 00 00 00 00 00 00   ................
0360 : 00 00 00 00 00 00 00 00  00 00 00 00 00 00 00 00   ................
0370 : 00 01 00 00 00 00 00 00  00 00 00 00 00 00 00 00   ................

Copy Protection:
    Copy Protection: None found

Tracks and Write Offsets:
    DAT:

<rom name="SYNWARSQA9.0 (Track 1).bin" size="456264480" crc="e20fe1eb" md5="2c0b2cdf25d322ac25364cad4d1df431" sha1="f2d26427acf160a03604240641bc71941734bf41" />
<rom name="SYNWARSQA9.0 (Track 2).bin" size="99861216" crc="72322bd6" md5="2246f23313491079826276c741c4ea85" sha1="16a25e6ad23310b0e84fd1f7c38c2184ed761063" />
<rom name="SYNWARSQA9.0 (Track 3).bin" size="105120288" crc="909963f1" md5="5fa34867af6729e2137a1a50a197e868" sha1="78dab82d96700140f295b7ad26292895288e7096" />
<rom name="SYNWARSQA9.0 (Track 4).bin" size="107855664" crc="1a8eac5e" md5="01589f67f6dacd85a33df6ae932399af" sha1="b157ea981a12510e1abc7e3cac1c951bc1c89f45" />

    Cuesheet:

FILE "SYNWARSQA9.0 (Track 1).bin" BINARY
  TRACK 01 MODE1/2352
    INDEX 01 00:00:00
FILE "SYNWARSQA9.0 (Track 2).bin" BINARY
  TRACK 02 AUDIO
    INDEX 00 00:00:00
    INDEX 01 00:01:74
FILE "SYNWARSQA9.0 (Track 3).bin" BINARY
  TRACK 03 AUDIO
    INDEX 00 00:00:00
    INDEX 01 00:01:74
FILE "SYNWARSQA9.0 (Track 4).bin" BINARY
  TRACK 04 AUDIO
    INDEX 00 00:00:00
    INDEX 01 00:01:74

    Write Offset: 0