Akira Psycho Ball

http://redump.org/disc/8340/
https://drive.google.com/open?id=14b9Qi … 0-r9kxijr4

Common Disc Info:
    Title: Akira Psycho Ball
    System: Sony PlayStation 2
    Media Type: CD-ROM
    Category: Games
    Matching IDs: 8340
    Region: Europe
    Languages: English
    Disc Serial: SLES-50919

    Ringcode Information:
        Mastering Code (laser branded/etched): Sony DADC   A0100429834-0101   18
        Mastering SID Code: IFPI L558
        Data-Side Mould SID Code: IFPI 945R
        Toolstamp or Mastering Code (engraved/stamped): A1
    Barcode: 3 296580 800308
    Error Count: 0

Version and Editions:
    Version: 1.01
    Edition/Release: Original

Extras:
    Primary Volume Descriptor (PVD):

0320 : 20 20 20 20 20 20 20 20  20 20 20 20 20 32 30 30                200
0330 : 32 30 38 32 34 31 36 32  30 33 36 30 30 24 30 30   2082416203600$00
0340 : 30 30 30 30 30 30 30 30  30 30 30 30 30 30 00 30   00000000000000.0
0350 : 30 30 30 30 30 30 30 30  30 30 30 30 30 30 30 00   000000000000000.
0360 : 30 30 30 30 30 30 30 30  30 30 30 30 30 30 30 30   0000000000000000
0370 : 00 01 00 00 00 00 00 00  00 00 00 00 00 00 00 00   ................

Tracks and Write Offsets:
    DAT:

<rom name="track.bin" size="616670880" crc="40269789" md5="8ad112ff01628a7bd38b15f73e8a1c75" sha1="038a064dd198e9119ad34c569720375243e892d9" />

    Cuesheet:

FILE "track.bin" BINARY
  TRACK 01 MODE2/2352
    INDEX 01 00:00:00

    Write Offset: -12

Crabby Adventure

http://redump.org/disc/26660/
https://drive.google.com/open?id=1lhmPg … 9hhEHtIpZH

Common Disc Info:
    Title: Crabby Adventure
    System: Sony PlayStation 2
    Media Type: CD-ROM
    Category: Games
    Matching IDs: 26660
    Region: Europe
    Languages: English
    Disc Serial: SLES-54865

    Ringcode Information:
        Mastering Code (laser branded/etched): Sony DADC   A0100860925-0101   18
        Mastering SID Code: IFPI L558
        Data-Side Mould SID Code: IFPI 948S
        Toolstamp or Mastering Code (engraved/stamped): A00
    Barcode: 8 717249 599944
    Error Count: 0

Version and Editions:
    Version: 1.03
    Edition/Release: Original

Extras:
    Primary Volume Descriptor (PVD):

0320 : 20 20 20 20 20 20 20 20  20 20 20 20 20 32 30 30                200
0330 : 37 30 39 32 35 31 39 31  38 35 34 30 30 24 30 30   7092519185400$00
0340 : 30 30 30 30 30 30 30 30  30 30 30 30 30 30 00 30   00000000000000.0
0350 : 30 30 30 30 30 30 30 30  30 30 30 30 30 30 30 00   000000000000000.
0360 : 30 30 30 30 30 30 30 30  30 30 30 30 30 30 30 30   0000000000000000
0370 : 00 01 00 00 00 00 00 00  00 00 00 00 00 00 00 00   ................

Tracks and Write Offsets:
    DAT:

<rom name="SLES_54865.bin" size="64061424" crc="40b75dc7" md5="1f69da480545395e6f362962390eb7de" sha1="a6fe3a98954b68ede59f2080fea3f3719c7c54b0" />

    Cuesheet:

FILE "SLES_54865.bin" BINARY
  TRACK 01 MODE2/2352
    INDEX 01 00:00:00

    Write Offset: -12

Dr. Dolittle

http://redump.org/disc/24985/
https://drive.google.com/open?id=1R2vSo … vfMyyYlCpO

Common Disc Info:
    Title: Dr. Dolittle
    System: Sony PlayStation 2
    Media Type: CD-ROM
    Category: Games
    Matching IDs: 24985
    Region: Europe
    Languages: Danish, English, Finnish, Norwegian, Polish, Portuguese, Swedish
    Language Selection Via: LanguageSelector
    Disc Serial: SLES-54424

    Ringcode Information:
        Mastering Code (laser branded/etched): Sony DADC   A0100742802-0101   38
        Mastering SID Code: IFPI L558
        Data-Side Mould SID Code: IFPI 945S
        Toolstamp or Mastering Code (engraved/stamped): A2
    Barcode: 5051272000040
    Error Count: 0
    Comments: Language selection via Language Selector

Version and Editions:
    Version: 1.00
    Edition/Release: Original

Extras:
    Primary Volume Descriptor (PVD):

0320 : 20 20 20 20 20 20 20 20  20 20 20 20 20 32 30 30                200
0330 : 36 31 30 32 35 31 34 30  35 32 38 30 30 24 30 30   6102514052800$00
0340 : 30 30 30 30 30 30 30 30  30 30 30 30 30 30 00 30   00000000000000.0
0350 : 30 30 30 30 30 30 30 30  30 30 30 30 30 30 30 00   000000000000000.
0360 : 30 30 30 30 30 30 30 30  30 30 30 30 30 30 30 30   0000000000000000
0370 : 00 01 00 00 00 00 00 00  00 00 00 00 00 00 00 00   ................

Tracks and Write Offsets:
    DAT:

<rom name="SLES_54424.bin" size="82141248" crc="200673ef" md5="6843ec7a21b9abebeff92eb6f0108358" sha1="bab978154d0da9853ee818e31961b07739ee2347" />

    Cuesheet:

FILE "SLES_54424.bin" BINARY
  TRACK 01 MODE2/2352
    INDEX 01 00:00:00

    Write Offset: -12

Mambo

http://redump.org/disc/26366/
https://drive.google.com/open?id=1W1NDJ … _EeIaYzEMd

Common Disc Info:
    Title: Mambo
    System: Sony PlayStation 2
    Media Type: CD-ROM
    Category: Games
    Matching IDs: 26366
    Region: Europe
    Languages: English
    Disc Serial: SLES-54839

    Ringcode Information:
        Mastering Code (laser branded/etched): Sony DADC   A0100874191-0101   28
        Mastering SID Code: IFPI L558
        Data-Side Mould SID Code: IFPI 948S
        Toolstamp or Mastering Code (engraved/stamped): A01
    Barcode: 8 717249 599630
    Error Count: 0

Version and Editions:
    Version: 1.03
    Edition/Release: Original

Extras:
    Primary Volume Descriptor (PVD):

0320 : 20 20 20 20 20 20 20 20  20 20 20 20 20 32 30 30                200
0330 : 37 30 39 32 35 31 37 34  33 31 38 30 30 24 30 30   7092517431800$00
0340 : 30 30 30 30 30 30 30 30  30 30 30 30 30 30 00 30   00000000000000.0
0350 : 30 30 30 30 30 30 30 30  30 30 30 30 30 30 30 00   000000000000000.
0360 : 30 30 30 30 30 30 30 30  30 30 30 30 30 30 30 30   0000000000000000
0370 : 00 01 00 00 00 00 00 00  00 00 00 00 00 00 00 00   ................

Tracks and Write Offsets:
    DAT:

<rom name="SLES_54839.bin" size="51501744" crc="7baf74db" md5="95360172d28ab473c221be0cd72ec4a6" sha1="83de719c54839fece71574db57749d1c73a8d385" />

    Cuesheet:

FILE "SLES_54839.bin" BINARY
  TRACK 01 MODE2/2352
    INDEX 01 00:00:00

    Write Offset: -12

ShellShock: Nam '67

http://redump.org/disc/13137/
https://drive.google.com/open?id=1GIxog … B1Lp9lLrjf

Common Disc Info:
    Title: ShellShock: Nam '67
    System: Sony PlayStation 2
    Media Type: DVD-ROM-5
    Category: Games
    Region: Europe
    Languages: English
    Disc Serial: SLES-51981

    Ringcode Information:
        Mastering Code (laser branded/etched): Sony DADC   A0100533098-A511   17
        Mastering SID Code: IFPI L557
        Data-Side Mould SID Code: IFPI 943W
        Toolstamp or Mastering Code (engraved/stamped): A2
    Barcode: 1020954 (numbers after SLES-51981)

Version and Editions:
    Version: 1.04
    Edition/Release: Promo

Extras:
    Primary Volume Descriptor (PVD):

0320 : 20 20 20 20 20 20 20 20  20 20 20 20 20 32 30 30                200
0330 : 34 30 37 31 34 31 32 35  35 35 36 30 30 24 30 30   4071412555600$00
0340 : 30 30 30 30 30 30 30 30  30 30 30 30 30 30 00 30   00000000000000.0
0350 : 30 30 30 30 30 30 30 30  30 30 30 30 30 30 30 00   000000000000000.
0360 : 30 30 30 30 30 30 30 30  30 30 30 30 30 30 30 30   0000000000000000
0370 : 00 01 00 00 00 00 00 00  00 00 00 00 00 00 00 00   ................

Size & Checksum:
    Size: 4417224704
    CRC32: fff14f5d
    MD5: 9c657d866d312e3a8fe110ee31881d3f
    SHA1: 5e5dbd823ad4eea89c55a3c9c4ae9693867f76e2

Snow White and the 7 Clever Boys

http://redump.org/disc/22442/
https://drive.google.com/open?id=1T1ESY … T4mKsUvTEv

Common Disc Info:
    Title: Snow White and the 7 Clever Boys
    System: Sony PlayStation 2
    Media Type: CD-ROM
    Category: Games
    Matching IDs: 22442
    Region: Europe
    Languages: English, French, German
    Language Selection Via: LanguageSelector
    Disc Serial: SLES-54620

    Ringcode Information:
        Mastering Code (laser branded/etched): Sony DADC   A0100771616-0101   18
        Mastering SID Code: IFPI L558
        Data-Side Mould SID Code: IFPI 945R
        Toolstamp or Mastering Code (engraved/stamped): A2
    Barcode: 8 717249 598350
    Error Count: 0

Version and Editions:
    Version: 1.00
    Edition/Release: Original

Extras:
    Primary Volume Descriptor (PVD):

0320 : 20 20 20 20 20 20 20 20  20 20 20 20 20 32 30 30                200
0330 : 36 31 31 32 38 31 32 30  30 30 30 30 30 24 30 30   6112812000000$00
0340 : 30 30 30 30 30 30 30 30  30 30 30 30 30 30 00 30   00000000000000.0
0350 : 30 30 30 30 30 30 30 30  30 30 30 30 30 30 30 00   000000000000000.
0360 : 30 30 30 30 30 30 30 30  30 30 30 30 30 30 30 30   0000000000000000
0370 : 00 01 00 00 00 00 00 00  00 00 00 00 00 00 00 00   ................

Tracks and Write Offsets:
    DAT:

<rom name="Snow White &amp; the 7 Clever Boys (Europe) (En,Fr,De).bin" size="627445392" crc="8d02fd83" md5="0837396ede729e5b414f9e49a055b019" sha1="60b65880ca3bd283469cfa240bd3529453191c0c" />

    Cuesheet:

FILE "Snow White & the 7 Clever Boys (Europe) (En,Fr,De).bin" BINARY
  TRACK 01 MODE2/2352
    INDEX 01 00:00:00

    Write Offset: -12

The Spiderwick Chronicles

http://redump.org/disc/22175/
https://drive.google.com/open?id=1e4EGR … WLa9MApJA8

Common Disc Info:
    Title: The Spiderwick Chronicles
    System: Sony PlayStation 2
    Media Type: DVD-ROM-5
    Category: Games
    Region: Europe
    Languages: English, French, German, Italian, Spanish
    Language Selection Via: BiosSettings
    Disc Serial: SLES-55109

    Ringcode Information:
        Mastering Code (laser branded/etched): Sony DADC   A0100908242-A511   37
        Mastering SID Code: IFPI L557
        Data-Side Mould SID Code: IFPI 945Z
        Toolstamp or Mastering Code (engraved/stamped): A1
    Barcode: 2218277 (numbers after SLES-55109)

Version and Editions:
    Version: 1.00
    Edition/Release: Promo

Extras:
    Primary Volume Descriptor (PVD):

0320 : 20 20 20 20 20 20 20 20  20 20 20 20 20 32 30 30                200
0330 : 37 31 32 31 36 31 31 34  30 32 37 30 30 24 30 30   7121611402700$00
0340 : 30 30 30 30 30 30 30 30  30 30 30 30 30 30 00 30   00000000000000.0
0350 : 30 30 30 30 30 30 30 30  30 30 30 30 30 30 30 00   000000000000000.
0360 : 30 30 30 30 30 30 30 30  30 30 30 30 30 30 30 30   0000000000000000
0370 : 00 01 00 00 00 00 00 00  00 00 00 00 00 00 00 00   ................

Size & Checksum:
    Size: 2328887296
    CRC32: 7e21db33
    MD5: 13ca4f7c3232139558c3895125587a60
    SHA1: a31db1fa56dc4fa55469fc8f8955f58624f2017a