1 (edited by LastCat 2020-03-31 22:28:54)

Common Disc Info:
    Title: Emerald Dragon
    Foreign Title (Non-latin): エメラルド・ドラゴン【体験版】
    Disc Number / Letter: 
    Disc Title: 
    System: NEC PC-Engine / TurboGrafx CD
    Media Type: CD-ROM
    Category: Demos
    Matching IDs: 40352
    Region: Japan
    Languages: Japanese
    Disc Serial: HMD-0001

    Ringcode Information:
       

Mastering Code (laser branded/etched): FLLTF HMD11012-1  TAR6 
        Mastering SID Code:  
        Data-Side Mould SID Code:  
        Label-Side Mould SID Code:  
        Additional Mould:  
        Toolstamp or Mastering Code (engraved/stamped): 


    Barcode: 
    Error Count: 0
    Comments: Bundled with the Dengeki Mook Series: Dengeki CD-ROM and Book Vol. 1: Emerald Dragon book.
    Contents: 

Version and Editions:
    Version: 
    Edition/Release: Bundled with Book (Taikenban)

Extras:
    Primary Volume Descriptor (PVD): Disc has no PVD

Tracks and Write Offsets:
    DAT:

<rom name="Emerald Dragon (Taikenban) (Track 01).bin" size="7914480" crc="a2bf8f7d" md5="eeb0054803a0726974ed35fe775b9f12" sha1="126c03bf37319490681b5552221ad6328e095072" />
<rom name="Emerald Dragon (Taikenban) (Track 02).bin" size="106872528" crc="48525f72" md5="9109b1d09d7d1b7d085f60ab9c822afe" sha1="a71020619e0b08521cb511769b46f18b5a90d477" />
<rom name="Emerald Dragon (Taikenban) (Track 03).bin" size="47002368" crc="700e08c1" md5="d641de77f0267c97e3c4afb7bd1d8557" sha1="8fbd6901f4032dd59f6f423bc4cf12943c1c6b20" />
<rom name="Emerald Dragon (Taikenban) (Track 04).bin" size="20314224" crc="e8231be1" md5="5e742229dd746ad594052c92d0d4a598" sha1="430ff93069a5a67f3444a8cb2d1658d3b7443a7e" />
<rom name="Emerald Dragon (Taikenban) (Track 05).bin" size="21922992" crc="3d9d11da" md5="51bff234bfb5f91f831b9b6185403012" sha1="97ff1053afe460b392423561cdcb32a5112a2421" />
<rom name="Emerald Dragon (Taikenban) (Track 06).bin" size="22400448" crc="671ed289" md5="dcc871524a44b0143d2f4aa900c9bc17" sha1="0d194dac435fe938fd1e48ce4f7621ad48ce6db4" />
<rom name="Emerald Dragon (Taikenban) (Track 07).bin" size="22927296" crc="54bc06c4" md5="d64d0217a07b1707e6608868d83641e9" sha1="6399b726be69e1655d9be41296ceb9c3c1680661" />
<rom name="Emerald Dragon (Taikenban) (Track 08).bin" size="22426320" crc="ec6f2996" md5="3adb44216b57a2572eac8339571495c4" sha1="f07c7ac6ac34d1e45c44938e80fca50e5852fa3a" />
<rom name="Emerald Dragon (Taikenban) (Track 09).bin" size="13702752" crc="e3dae59d" md5="92acf131d64901c18a47479e0cd01fd2" sha1="81cb203f79854f636542703b460aa8d00d9f6b80" />
<rom name="Emerald Dragon (Taikenban) (Track 10).bin" size="25029984" crc="99310c71" md5="37f8363ab5ec236c9eaebb2d7820ddb6" sha1="c3c722f7e955c06da0e913dac93943d0e858bbdc" />
<rom name="Emerald Dragon (Taikenban) (Track 11).bin" size="39800544" crc="3223978b" md5="6831a13731d3373f5502bc46b15d1d53" sha1="04ba08d0e7f2dacd15f66ad4d788586e136fe156" />
<rom name="Emerald Dragon (Taikenban) (Track 12).bin" size="10144176" crc="395229cc" md5="48bdfe55b9a003481974bac75fa21fb3" sha1="8ba4d72c6ab64a596a790b5aeed9dae9d5836a76" />
<rom name="Emerald Dragon (Taikenban) (Track 13).bin" size="10322928" crc="c757c63e" md5="5125b084752f6e6e20019a80d7d2170e" sha1="64e35eab6731703ddf30fa1b0dce0ca7fe8390f0" />
<rom name="Emerald Dragon (Taikenban) (Track 14).bin" size="26683440" crc="c3155e45" md5="23e94061126560f23fc35521a54aa99a" sha1="0374b0eb834efd7c3612b63702ffb7689f743d0b" />
<rom name="Emerald Dragon (Taikenban) (Track 15).bin" size="24910032" crc="558908d0" md5="29003a10ac29bff4506c7754ed1b536a" sha1="ade367a08c28baa2a3b5e432cb6f7ef5ae4e388b" />
<rom name="Emerald Dragon (Taikenban) (Track 16).bin" size="16635696" crc="0cb5658b" md5="cf06297a2b9db79abcaa254bc7d50483" sha1="3896c571ed65a34bd027a32eddaa7614d61df0b4" />
<rom name="Emerald Dragon (Taikenban) (Track 17).bin" size="13770960" crc="60b3cf40" md5="a684d7811a5e0499826e3ff10a619d10" sha1="8098c559c44fb99ab12fd0969a8f1821a6be0219" />
<rom name="Emerald Dragon (Taikenban) (Track 18).bin" size="14754096" crc="dc6d70f2" md5="16b05df43fcb471b0049420535c02e3e" sha1="05aee77a75f98e978bf3d47f8baae8d070009591" />
<rom name="Emerald Dragon (Taikenban) (Track 19).bin" size="10838016" crc="dec7cf9a" md5="5f5ffce8163f54aec93e3cf16696b3f6" sha1="d5cb62286c1081b8c706f8487d7689cf2b28614f" />
<rom name="Emerald Dragon (Taikenban) (Track 20).bin" size="1613472" crc="132ea320" md5="055c5f7df62685c9c5d1816d1aa0fda7" sha1="fb1893b9348cc93dd8a53da9c113cb86ba15a691" />

    Cuesheet:

CATALOG 0000000000000
FILE "Emerald Dragon (Taikenban) (Track 01).bin" BINARY
  TRACK 01 AUDIO
    INDEX 01 00:00:00
FILE "Emerald Dragon (Taikenban) (Track 02).bin" BINARY
  TRACK 02 MODE1/2352
    INDEX 00 00:00:00
    INDEX 01 00:03:06
FILE "Emerald Dragon (Taikenban) (Track 03).bin" BINARY
  TRACK 03 AUDIO
    INDEX 00 00:00:00
    INDEX 01 00:02:00
FILE "Emerald Dragon (Taikenban) (Track 04).bin" BINARY
  TRACK 04 AUDIO
    INDEX 01 00:00:00
FILE "Emerald Dragon (Taikenban) (Track 05).bin" BINARY
  TRACK 05 AUDIO
    INDEX 01 00:00:00
FILE "Emerald Dragon (Taikenban) (Track 06).bin" BINARY
  TRACK 06 AUDIO
    INDEX 01 00:00:00
FILE "Emerald Dragon (Taikenban) (Track 07).bin" BINARY
  TRACK 07 AUDIO
    INDEX 01 00:00:00
FILE "Emerald Dragon (Taikenban) (Track 08).bin" BINARY
  TRACK 08 AUDIO
    INDEX 01 00:00:00
FILE "Emerald Dragon (Taikenban) (Track 09).bin" BINARY
  TRACK 09 AUDIO
    INDEX 01 00:00:00
FILE "Emerald Dragon (Taikenban) (Track 10).bin" BINARY
  TRACK 10 AUDIO
    INDEX 01 00:00:00
FILE "Emerald Dragon (Taikenban) (Track 11).bin" BINARY
  TRACK 11 AUDIO
    INDEX 01 00:00:00
FILE "Emerald Dragon (Taikenban) (Track 12).bin" BINARY
  TRACK 12 AUDIO
    INDEX 01 00:00:00
FILE "Emerald Dragon (Taikenban) (Track 13).bin" BINARY
  TRACK 13 AUDIO
    INDEX 01 00:00:00
FILE "Emerald Dragon (Taikenban) (Track 14).bin" BINARY
  TRACK 14 AUDIO
    INDEX 01 00:00:00
FILE "Emerald Dragon (Taikenban) (Track 15).bin" BINARY
  TRACK 15 AUDIO
    INDEX 01 00:00:00
FILE "Emerald Dragon (Taikenban) (Track 16).bin" BINARY
  TRACK 16 AUDIO
    INDEX 01 00:00:00
FILE "Emerald Dragon (Taikenban) (Track 17).bin" BINARY
  TRACK 17 AUDIO
    INDEX 01 00:00:00
FILE "Emerald Dragon (Taikenban) (Track 18).bin" BINARY
  TRACK 18 AUDIO
    INDEX 01 00:00:00
FILE "Emerald Dragon (Taikenban) (Track 19).bin" BINARY
  TRACK 19 AUDIO
    INDEX 01 00:00:00
FILE "Emerald Dragon (Taikenban) (Track 20).bin" BINARY
  TRACK 20 AUDIO
    INDEX 01 00:00:00

    Write Offset: -1497

https://cdn.discordapp.com/attachments/ … ikenban.7z