-------------------------------------Disc 1-------------------------------------
Common Disc Info:
    Title: Policenauts
    Foreign Title (Non-latin): ポリスノーツ
    Disc Number / Letter: 1
    Disc Title: N/A
    System: Sega Saturn
    Media Type: CD-ROM
    Category: Games
    Region: Japan
    Languages: Japanese
    Disc Serial: T-9510G

    Ringcode Information:
        Mastering Code (laser branded/etched): T-9510GP-00965-P1C    V
        Mastering SID Code: IFPI L231
        Data-Side Mould SID Code: IFPI 4011
        Label-Side Mould SID Code: N/A
        Additional Mould: N/A
        Toolstamp or Mastering Code (engraved/stamped): 1 6
    Barcode: T4988602017663
    EXE/Build Date: 19960701
    Error Count: 0
    Comments: N/A
    Contents: N/A

Version and Editions:
    Version: V1.000
    Edition/Release: Original

Extras:
    Primary Volume Descriptor (PVD):

0320 : 20 20 20 20 20 20 20 20  20 20 20 20 20 31 39 39                199
0330 : 36 30 37 30 32 32 30 30  30 30 36 30 30 DC 31 39   6070220000600.19
0340 : 39 36 30 37 30 32 32 30  30 30 30 36 30 30 DC 30   96070220000600.0
0350 : 30 30 30 30 30 30 30 30  30 30 30 30 30 30 30 00   000000000000000.
0360 : 30 30 30 30 30 30 30 30  30 30 30 30 30 30 30 30   0000000000000000
0370 : 00 01 00 00 00 00 00 00  00 00 00 00 00 00 00 00   ................

    Header:

0000 : 53 45 47 41 20 53 45 47  41 53 41 54 55 52 4E 20   SEGA SEGASATURN
0010 : 53 45 47 41 20 54 50 20  54 2D 39 35 20 20 20 20   SEGA TP T-95   
0020 : 54 2D 39 35 31 30 47 20  20 20 56 31 2E 30 30 30   T-9510G   V1.000
0030 : 31 39 39 36 30 37 30 31  43 44 2D 31 2F 33 20 20   19960701CD-1/3 
0040 : 4A 20 20 20 20 20 20 20  20 20 20 20 20 20 20 20   J               
0050 : 4A 4D 47 20 20 20 20 20  20 20 20 20 20 20 20 20   JMG             
0060 : 50 4F 4C 49 43 45 4E 41  55 54 53 20 20 20 20 20   POLICENAUTS     
0070 : 20 20 20 20 20 20 20 20  20 20 20 20 20 20 20 20                   
0080 : 20 20 20 20 20 20 20 20  20 20 20 20 20 20 20 20                   
0090 : 20 20 20 20 20 20 20 20  20 20 20 20 20 20 20 20                   
00A0 : 20 20 20 20 20 20 20 20  20 20 20 20 20 20 20 20                   
00B0 : 20 20 20 20 20 20 20 20  20 20 20 20 20 20 20 20                   
00C0 : 20 20 20 20 20 20 20 20  20 20 20 20 20 20 20 20                   
00D0 : 00 00 00 00 00 00 00 00  00 00 00 00 00 00 00 00   ................
00E0 : 00 00 18 00 00 00 00 00  00 00 00 00 00 00 00 00   ................
00F0 : 00 20 00 00 00 00 00 00  00 00 00 00 00 00 00 00   . ..............

Tracks and Write Offsets:
    DAT:

<rom name="Policenauts Disc 1 (Track 1).bin" size="524338416" crc="40559040" md5="d78318eff2d44189f14dfcb3b4859333" sha1="526bcd0ff248866f5d8c829c6c186f6c1a9c2405" />
<rom name="Policenauts Disc 1 (Track 2).bin" size="4812192" crc="9ab27e17" md5="ad95d264cbec6f82fabf388d7016ae12" sha1="4204c3989a5054578d32df7c15915a358d6ea2a9" />

    Cuesheet:

CATALOG 0000000000000
FILE "Policenauts Disc 1 (Track 1).bin" BINARY
  TRACK 01 MODE1/2352
    INDEX 01 00:00:00
FILE "Policenauts Disc 1 (Track 2).bin" BINARY
  TRACK 02 AUDIO
    INDEX 00 00:00:00
    INDEX 01 00:02:00

    Write Offset: 1254

http://redump.org/disc/3857/

Verification Data:
https://drive.google.com/file/d/1bBQPwh … sp=sharing

-------------------------------------Disc 2-------------------------------------
Common Disc Info:
    Title: Policenauts
    Foreign Title (Non-latin): ポリスノーツ
    Disc Number / Letter: 2
    Disc Title: N/A
    System: Sega Saturn
    Media Type: CD-ROM
    Category: Games
    Region: Japan
    Languages: Japanese
    Disc Serial: T-9510G

    Ringcode Information:
        Mastering Code (laser branded/etched): T-9510GP-00966-P1C    V
        Mastering SID Code: IFPI L231
        Data-Side Mould SID Code: IFPI 4011
        Label-Side Mould SID Code: N/A
        Additional Mould: N/A
        Toolstamp or Mastering Code (engraved/stamped): 1
    Barcode: T4988602017663
    EXE/Build Date: 19960701
    Error Count: 0
    Comments: N/A
    Contents: N/A

Version and Editions:
    Version: V1.000
    Edition/Release: Original

Extras:
    Primary Volume Descriptor (PVD):

0320 : 20 20 20 20 20 20 20 20  20 20 20 20 20 31 39 39                199
0330 : 36 30 37 30 32 32 30 30  38 35 34 30 30 DC 31 39   6070220085400.19
0340 : 39 36 30 37 30 32 32 30  30 38 35 34 30 30 DC 30   96070220085400.0
0350 : 30 30 30 30 30 30 30 30  30 30 30 30 30 30 30 00   000000000000000.
0360 : 30 30 30 30 30 30 30 30  30 30 30 30 30 30 30 30   0000000000000000
0370 : 00 01 00 00 00 00 00 00  00 00 00 00 00 00 00 00   ................

    Header:

0000 : 53 45 47 41 20 53 45 47  41 53 41 54 55 52 4E 20   SEGA SEGASATURN
0010 : 53 45 47 41 20 54 50 20  54 2D 39 35 20 20 20 20   SEGA TP T-95   
0020 : 54 2D 39 35 31 30 47 20  20 20 56 31 2E 30 30 30   T-9510G   V1.000
0030 : 31 39 39 36 30 37 30 31  43 44 2D 32 2F 33 20 20   19960701CD-2/3 
0040 : 4A 20 20 20 20 20 20 20  20 20 20 20 20 20 20 20   J               
0050 : 4A 4D 47 20 20 20 20 20  20 20 20 20 20 20 20 20   JMG             
0060 : 50 4F 4C 49 43 45 4E 41  55 54 53 20 20 20 20 20   POLICENAUTS     
0070 : 20 20 20 20 20 20 20 20  20 20 20 20 20 20 20 20                   
0080 : 20 20 20 20 20 20 20 20  20 20 20 20 20 20 20 20                   
0090 : 20 20 20 20 20 20 20 20  20 20 20 20 20 20 20 20                   
00A0 : 20 20 20 20 20 20 20 20  20 20 20 20 20 20 20 20                   
00B0 : 20 20 20 20 20 20 20 20  20 20 20 20 20 20 20 20                   
00C0 : 20 20 20 20 20 20 20 20  20 20 20 20 20 20 20 20                   
00D0 : 00 00 00 00 00 00 00 00  00 00 00 00 00 00 00 00   ................
00E0 : 00 00 18 00 00 00 00 00  00 00 00 00 00 00 00 00   ................
00F0 : 00 20 00 00 00 00 00 00  00 00 00 00 00 00 00 00   . ..............

Tracks and Write Offsets:
    DAT:

<rom name="POLICENAUTS2 (Track 1).bin" size="560211120" crc="5ae082f4" md5="657ecc922d2b0912476a387bd039ea2c" sha1="20edac717f607b1e0a10443f3480c96acd725450" />
<rom name="POLICENAUTS2 (Track 2).bin" size="4812192" crc="ef2f9fcb" md5="4a602b88570e6f5b9a6c4b59cccec7e3" sha1="d2e0164f928a214f68635927b9d218b06149de5c" />

    Cuesheet:

CATALOG 0000000000000
FILE "POLICENAUTS2 (Track 1).bin" BINARY
  TRACK 01 MODE1/2352
    INDEX 01 00:00:00
FILE "POLICENAUTS2 (Track 2).bin" BINARY
  TRACK 02 AUDIO
    INDEX 00 00:00:00
    INDEX 01 00:02:00

    Write Offset: 1848

http://redump.org/disc/3858/

Verification Data:
https://drive.google.com/file/d/1A3c7gA … sp=sharing

-------------------------------------Disc 3-------------------------------------
Common Disc Info:
    Title: Policenauts
    Foreign Title (Non-latin): ポリスノーツ
    Disc Number / Letter: 3
    Disc Title: N/A
    System: Sega Saturn
    Media Type: CD-ROM
    Category: Games
    Region: Japan
    Languages: Japanese
    Disc Serial: T-9510G

    Ringcode Information:
        Mastering Code (laser branded/etched): T-9510GP-00967-P1C    V
        Mastering SID Code: IFPI L231
        Data-Side Mould SID Code: IFPI 4001
        Label-Side Mould SID Code: N/A
        Additional Mould: N/A
        Toolstamp or Mastering Code (engraved/stamped): 1
    Barcode: T4988602017663
    EXE/Build Date: 19960701
    Error Count: 0
    Comments: N/A
    Contents: N/A

Version and Editions:
    Version: V1.000
    Edition/Release: Original

Extras:
    Primary Volume Descriptor (PVD):

0320 : 20 20 20 20 20 20 20 20  20 20 20 20 20 31 39 39                199
0330 : 36 30 37 30 32 31 37 35  35 34 34 30 30 DC 31 39   6070217554400.19
0340 : 39 36 30 37 30 32 31 37  35 35 34 34 30 30 DC 30   96070217554400.0
0350 : 30 30 30 30 30 30 30 30  30 30 30 30 30 30 30 00   000000000000000.
0360 : 30 30 30 30 30 30 30 30  30 30 30 30 30 30 30 30   0000000000000000
0370 : 00 01 00 00 00 00 00 00  00 00 00 00 00 00 00 00   ................

    Header:

0000 : 53 45 47 41 20 53 45 47  41 53 41 54 55 52 4E 20   SEGA SEGASATURN
0010 : 53 45 47 41 20 54 50 20  54 2D 39 35 20 20 20 20   SEGA TP T-95   
0020 : 54 2D 39 35 31 30 47 20  20 20 56 31 2E 30 30 30   T-9510G   V1.000
0030 : 31 39 39 36 30 37 30 31  43 44 2D 33 2F 33 20 20   19960701CD-3/3 
0040 : 4A 20 20 20 20 20 20 20  20 20 20 20 20 20 20 20   J               
0050 : 4A 4D 47 20 20 20 20 20  20 20 20 20 20 20 20 20   JMG             
0060 : 50 4F 4C 49 43 45 4E 41  55 54 53 20 20 20 20 20   POLICENAUTS     
0070 : 20 20 20 20 20 20 20 20  20 20 20 20 20 20 20 20                   
0080 : 20 20 20 20 20 20 20 20  20 20 20 20 20 20 20 20                   
0090 : 20 20 20 20 20 20 20 20  20 20 20 20 20 20 20 20                   
00A0 : 20 20 20 20 20 20 20 20  20 20 20 20 20 20 20 20                   
00B0 : 20 20 20 20 20 20 20 20  20 20 20 20 20 20 20 20                   
00C0 : 20 20 20 20 20 20 20 20  20 20 20 20 20 20 20 20                   
00D0 : 00 00 00 00 00 00 00 00  00 00 00 00 00 00 00 00   ................
00E0 : 00 00 18 00 00 00 00 00  00 00 00 00 00 00 00 00   ................
00F0 : 00 20 00 00 00 00 00 00  00 00 00 00 00 00 00 00   . ..............

Tracks and Write Offsets:
    DAT:

<rom name="Policenauts Disc 3 (Track 1).bin" size="513533328" crc="dd3689b8" md5="90c6a9161d47c1c0244adfee57f89323" sha1="7c837f0a3a1c12ba430c0bf4feefabf518629220" />
<rom name="Policenauts Disc 3 (Track 2).bin" size="4812192" crc="3acb5bee" md5="8002b03ba2fb587f6cc99534589669e7" sha1="0954da75f9f36d0ec15b1675fee1a34f649349fc" />

    Cuesheet:

CATALOG 0000000000000
FILE "Policenauts Disc 3 (Track 1).bin" BINARY
  TRACK 01 MODE1/2352
    INDEX 01 00:00:00
FILE "Policenauts Disc 3 (Track 2).bin" BINARY
  TRACK 02 AUDIO
    INDEX 00 00:00:00
    INDEX 01 00:02:00

    Write Offset: 1254

http://redump.org/disc/3859/

Verification Data:
https://drive.google.com/file/d/17Pd2Av … sp=sharing

If you want to get a ton of dumps done and ready for upload, never batch dump without tagging. You will leave yourself with a myriad of untagged dumps and it will drive you nuts.