1 (edited by Gameboi64 2020-03-31 21:39:47)

Common Disc Info:
    Title: Darius Gaiden
    Foreign Title (Non-latin): ダライアス外伝
    Disc Number / Letter: N/A
    Disc Title: N/A
    System: Sega Saturn
    Media Type: CD-ROM
    Category: Games
    Region: Japan
    Languages: Japanese
    Disc Serial: T-1102G

    Ringcode Information:
        Mastering Code (laser branded/etched): T-1102GP-00592    2MB2    C    5Y
        Mastering SID Code: IFPI L223
        Data-Side Mould SID Code: IFPI 3904
        Label-Side Mould SID Code: N/A
        Additional Mould: N/A
        Toolstamp or Mastering Code (engraved/stamped): N/A
    Barcode: T4988611950074
    EXE/Build Date: 19951110
    Error Count: 0
    Comments: N/A
    Contents: N/A

Version and Editions:
    Version: V1.001
    Edition/Release: Original

Extras:
    Primary Volume Descriptor (PVD):

0320 : 20 20 20 20 20 20 20 20  20 20 20 20 20 31 39 39                199
0330 : 35 30 38 30 39 30 30 30  30 30 30 30 30 24 31 39   5080900000000$19
0340 : 39 35 30 38 30 39 30 30  30 30 30 30 30 30 24 30   95080900000000$0
0350 : 30 30 30 30 30 30 30 30  30 30 30 30 30 30 30 00   000000000000000.
0360 : 30 30 30 30 30 30 30 30  30 30 30 30 30 30 30 30   0000000000000000
0370 : 00 01 00 00 00 00 00 00  00 00 00 00 00 00 00 00   ................

    Header:

0000 : 53 45 47 41 20 53 45 47  41 53 41 54 55 52 4E 20   SEGA SEGASATURN
0010 : 53 45 47 41 20 54 50 20  54 2D 31 31 20 20 20 20   SEGA TP T-11   
0020 : 54 2D 31 31 30 32 47 20  20 20 56 31 2E 30 30 31   T-1102G   V1.001
0030 : 31 39 39 35 31 31 31 30  43 44 2D 31 2F 31 20 20   19951110CD-1/1 
0040 : 4A 54 20 20 20 20 20 20  20 20 20 20 20 20 20 20   JT             
0050 : 4A 20 20 20 20 20 20 20  20 20 20 20 20 20 20 20   J               
0060 : 44 41 52 49 55 53 20 47  41 49 44 45 4E 20 20 20   DARIUS GAIDEN   
0070 : 20 20 20 20 20 20 20 20  20 20 20 20 20 20 20 20                   
0080 : 20 20 20 20 20 20 20 20  20 20 20 20 20 20 20 20                   
0090 : 20 20 20 20 20 20 20 20  20 20 20 20 20 20 20 20                   
00A0 : 20 20 20 20 20 20 20 20  20 20 20 20 20 20 20 20                   
00B0 : 20 20 20 20 20 20 20 20  20 20 20 20 20 20 20 20                   
00C0 : 20 20 20 20 20 20 20 20  20 20 20 20 20 20 20 20                   
00D0 : 00 00 00 00 00 00 00 00  00 00 00 00 00 00 00 00   ................
00E0 : 00 00 18 00 00 00 00 00  00 00 00 00 00 00 00 00   ................
00F0 : 06 01 20 00 00 00 00 00  00 00 00 00 00 00 00 00   .. .............

Tracks and Write Offsets:
    DAT:

<rom name="DARIUS_GAIDEN (Track 01).bin" size="23362416" crc="9df46871" md5="8ed009c1eac1d9b53441af6adc2513fd" sha1="22910f1b417c5616fe9b9c489c36317754d18147" />
<rom name="DARIUS_GAIDEN (Track 02).bin" size="49039200" crc="e9754b01" md5="84bed8e7aa5b33bcd9c0bbc3496982f8" sha1="dc04bda506a59ce2dc8adb8b56a737f4cdd8cde3" />
<rom name="DARIUS_GAIDEN (Track 03).bin" size="1058400" crc="222cd0b2" md5="ab2837bce4e99608ee7c8b428ed971d5" sha1="fefb27a940cfe0a297626177d991093ea48e0329" />
<rom name="DARIUS_GAIDEN (Track 04).bin" size="19933200" crc="92851167" md5="8e29a0bf4b59fa4a192501913dc58a13" sha1="8ea5d4da7c8a87edaed2d9cbc38ade4caa009ed1" />
<rom name="DARIUS_GAIDEN (Track 05).bin" size="18973584" crc="87328c86" md5="9079605d3596533a997cb7e338eca16a" sha1="2aac57ca76ca855b5534315e93eb5d46723b4675" />
<rom name="DARIUS_GAIDEN (Track 06).bin" size="45200736" crc="26a8335c" md5="abd9cc4ba5c1a725b9da1ad3f68a3383" sha1="91e06e6cd9034592e08c81f548b7360b7fc0ab98" />
<rom name="DARIUS_GAIDEN (Track 07).bin" size="24759504" crc="cfcf7789" md5="b626507124e81be71977f21588bda133" sha1="53f129261519fd24d0fde522ce6e9cf0a25cfc18" />
<rom name="DARIUS_GAIDEN (Track 08).bin" size="44217600" crc="8d04a664" md5="d37a3dc01491915c81182f0f4f0454bf" sha1="cdc74881f406ac7e2a7d153c42b4370d3d9686ea" />
<rom name="DARIUS_GAIDEN (Track 09).bin" size="21445536" crc="13dc3425" md5="a0bbc392ae42c39a7d295dd30196c52f" sha1="99ac5fcf8665966d8171e0b56cc3944ba9db2eeb" />
<rom name="DARIUS_GAIDEN (Track 10).bin" size="18620784" crc="5eb3313b" md5="a08150f7354c9fb3beeb051b669b0773" sha1="2af8c24605f47b7d6347fb34b12eb0950497a305" />
<rom name="DARIUS_GAIDEN (Track 11).bin" size="31399200" crc="7dab1b5f" md5="c6d047a884b33a80508235bd90c186ca" sha1="2a3747be441fa142e8db6e458a7a1569b241b766" />
<rom name="DARIUS_GAIDEN (Track 12).bin" size="44391648" crc="81bd1761" md5="8f246f5bf4f7b81af4fd549c09d546ce" sha1="a000b198293b3b0521702af890b2b326eee19c89" />
<rom name="DARIUS_GAIDEN (Track 13).bin" size="17397744" crc="20c8b6c2" md5="c90f41ab83691cccb30e3bc8b6ed28bf" sha1="86984fc7e56ec8e399e14f53c13642151ae6eb03" />
<rom name="DARIUS_GAIDEN (Track 14).bin" size="9807840" crc="03e1321d" md5="caee6bd2b01cfb0826be3951be9506c9" sha1="fa9d2a1687332ae769f0dec3706dba6a301247db" />
<rom name="DARIUS_GAIDEN (Track 15).bin" size="26483520" crc="ae438e80" md5="cfa89f21b9839cd169478239d81bc370" sha1="c08b0714148c4c742f05036cf9158c8dec78deaa" />
<rom name="DARIUS_GAIDEN (Track 16).bin" size="1905120" crc="1410cbc2" md5="2109026b4c155c34c4d1f8bdcdf6873c" sha1="c46d5f2738815894d97c6dc142a3f58416bccff2" />

    Cuesheet:

CATALOG 0000000000000
FILE "DARIUS_GAIDEN (Track 01).bin" BINARY
  TRACK 01 MODE1/2352
    INDEX 01 00:00:00
FILE "DARIUS_GAIDEN (Track 02).bin" BINARY
  TRACK 02 AUDIO
    INDEX 00 00:00:00
    INDEX 01 00:02:00
FILE "DARIUS_GAIDEN (Track 03).bin" BINARY
  TRACK 03 AUDIO
    INDEX 00 00:00:00
    INDEX 01 00:02:00
FILE "DARIUS_GAIDEN (Track 04).bin" BINARY
  TRACK 04 AUDIO
    INDEX 00 00:00:00
    INDEX 01 00:02:00
FILE "DARIUS_GAIDEN (Track 05).bin" BINARY
  TRACK 05 AUDIO
    INDEX 00 00:00:00
    INDEX 01 00:02:00
FILE "DARIUS_GAIDEN (Track 06).bin" BINARY
  TRACK 06 AUDIO
    INDEX 00 00:00:00
    INDEX 01 00:02:00
FILE "DARIUS_GAIDEN (Track 07).bin" BINARY
  TRACK 07 AUDIO
    INDEX 00 00:00:00
    INDEX 01 00:02:00
FILE "DARIUS_GAIDEN (Track 08).bin" BINARY
  TRACK 08 AUDIO
    INDEX 00 00:00:00
    INDEX 01 00:02:00
FILE "DARIUS_GAIDEN (Track 09).bin" BINARY
  TRACK 09 AUDIO
    INDEX 00 00:00:00
    INDEX 01 00:02:00
FILE "DARIUS_GAIDEN (Track 10).bin" BINARY
  TRACK 10 AUDIO
    INDEX 00 00:00:00
    INDEX 01 00:02:00
FILE "DARIUS_GAIDEN (Track 11).bin" BINARY
  TRACK 11 AUDIO
    INDEX 00 00:00:00
    INDEX 01 00:02:00
FILE "DARIUS_GAIDEN (Track 12).bin" BINARY
  TRACK 12 AUDIO
    INDEX 00 00:00:00
    INDEX 01 00:02:00
FILE "DARIUS_GAIDEN (Track 13).bin" BINARY
  TRACK 13 AUDIO
    INDEX 00 00:00:00
    INDEX 01 00:02:00
FILE "DARIUS_GAIDEN (Track 14).bin" BINARY
  TRACK 14 AUDIO
    INDEX 00 00:00:00
    INDEX 01 00:02:00
FILE "DARIUS_GAIDEN (Track 15).bin" BINARY
  TRACK 15 AUDIO
    INDEX 00 00:00:00
    INDEX 01 00:02:00
FILE "DARIUS_GAIDEN (Track 16).bin" BINARY
  TRACK 16 AUDIO
    INDEX 00 00:00:00
    INDEX 01 00:02:00

    Write Offset: 0

http://redump.org/disc/69039/

Verification Data:
https://drive.google.com/file/d/1BXb0LJ … sp=sharing

If you want to get a ton of dumps done and ready for upload, never batch dump without tagging. You will leave yourself with a myriad of untagged dumps and it will drive you nuts.