https://www.dropbox.com/s/jx2j5so9zvs0b … _4.7z?dl=0
Matches: http://redump.org/disc/14877/

Common Disc Info:
    Title: Toys "R" Us: Attack of the Killer Demos!
    System: Sony PlayStation
    Media Type: CD-ROM
    Category: Demos
    Region: USA
    Languages: English
    Disc Serial: SCUS-94397

    Ringcode Information:
        Mastering Code (laser branded/etched): PSRM-013720    3
        Mastering SID Code: IFPI L330
        Data-Side Mould SID Code: IFPI 5007
        Toolstamp or Mastering Code (engraved/stamped): A06
    EXE/Build Date: 1999-03-10
    Error Count: 1

Version and Editions:
    Edition/Release: Original

EDC:
    EDC: No

Extras:
    Primary Volume Descriptor (PVD):

0320 : 20 20 20 20 20 20 20 20  20 20 20 20 20 31 39 39                199
0330 : 39 30 33 31 30 31 31 33  32 31 39 38 37 24 30 30   9031011321987$00
0340 : 30 30 30 30 30 30 30 30  30 30 30 30 30 30 00 30   00000000000000.0
0350 : 30 30 30 30 30 30 30 30  30 30 30 30 30 30 30 00   000000000000000.
0360 : 30 30 30 30 30 30 30 30  30 30 30 30 30 30 30 30   0000000000000000
0370 : 00 01 00 00 00 00 00 00  00 00 00 00 00 00 00 00   ................

Copy Protection:
    Anti-modchip: No
    LibCrypt: No

Tracks and Write Offsets:
    DAT:

<rom name="Toys R Us - Attack of the Killer Demos! (USA) (Track 1).bin" size="406759584" crc="035c4997" md5="aafde3aaf905f0e4c4aaf02861ffbd46" sha1="2a21dd083bbd539b5bfefdf87de7aeaaa3b63ef3" />
<rom name="Toys R Us - Attack of the Killer Demos! (USA) (Track 2).bin" size="1667568" crc="9cd75aa3" md5="f63f0bda34cd8fd37b58e048b1e80327" sha1="aba2f37bbf17638c8df90a9e8a51282f1a846c22" />
<rom name="Toys R Us - Attack of the Killer Demos! (USA) (Track 3).bin" size="1681680" crc="0d4dae67" md5="13f9035c85075be444e135a05a511682" sha1="0eb15c23dc7ae344823c73865ce9a75d5aa709e3" />
<rom name="Toys R Us - Attack of the Killer Demos! (USA) (Track 4).bin" size="1401792" crc="780b1fc7" md5="54734d3fe6f75e0d6cf73fa0d3b63c83" sha1="d11089e8cd3f7d9fc4dfd1156e1a02f2f992897a" />

    Cuesheet:

FILE "Toys R Us - Attack of the Killer Demos! (USA) (Track 1).bin" BINARY
  TRACK 01 MODE2/2352
    INDEX 01 00:00:00
FILE "Toys R Us - Attack of the Killer Demos! (USA) (Track 2).bin" BINARY
  TRACK 02 AUDIO
    INDEX 00 00:00:00
    INDEX 01 00:02:00
FILE "Toys R Us - Attack of the Killer Demos! (USA) (Track 3).bin" BINARY
  TRACK 03 AUDIO
    INDEX 00 00:00:00
    INDEX 01 00:02:00
FILE "Toys R Us - Attack of the Killer Demos! (USA) (Track 4).bin" BINARY
  TRACK 04 AUDIO
    INDEX 00 00:00:00
    INDEX 01 00:02:00

    Write Offset: -647