https://www.dropbox.com/s/12w9oke63csrv … _6.7z?dl=0
Matches: http://redump.org/disc/12314/

Common Disc Info:
    Title: Namco Demo CD
    System: Sony PlayStation
    Media Type: CD-ROM
    Category: Demos
    Region: USA
    Languages: English
    Disc Serial: SLUS-90008

    Ringcode Information:
        Mastering Code (laser branded/etched): PSRM-008060    1
        Mastering SID Code: IFPI L330
        Data-Side Mould SID Code: IFPI 50C2
        Toolstamp or Mastering Code (engraved/stamped): A13
    EXE/Build Date: 1997-08-08
    Error Count: 1

Version and Editions:
    Edition/Release: Original

EDC:
    EDC: No

Extras:
    Primary Volume Descriptor (PVD):

0320 : 20 20 20 20 20 20 20 20  20 20 20 20 20 31 39 39                199
0330 : 37 30 38 30 38 30 38 30  38 30 38 30 30 24 30 30   7080808080800$00
0340 : 30 30 30 30 30 30 30 30  30 30 30 30 30 30 00 30   00000000000000.0
0350 : 30 30 30 30 30 30 30 30  30 30 30 30 30 30 30 00   000000000000000.
0360 : 30 30 30 30 30 30 30 30  30 30 30 30 30 30 30 30   0000000000000000
0370 : 00 01 00 00 00 00 00 00  00 00 00 00 00 00 00 00   ................

Copy Protection:
    Anti-modchip: No
    LibCrypt: No

Tracks and Write Offsets:
    DAT:

<rom name="Namco Demo CD (USA) (Track 1).bin" size="451304112" crc="a15c3079" md5="489b8f4a043dadb93e02b2e28af99949" sha1="bdea62fefcd7bd81a39bb48e89c8ab5172b0e763" />
<rom name="Namco Demo CD (USA) (Track 2).bin" size="9612624" crc="9640717a" md5="b33d2fc8553f1f5423eb791faa16d5cc" sha1="045ea569495fb62df508c93f7979fddbc31ccc00" />
<rom name="Namco Demo CD (USA) (Track 3).bin" size="28576800" crc="d733988b" md5="4f2d6725ab65cb97158f4dcfea8562ee" sha1="12db2e38730ac8f622efecf7ab0c7d50ca9995be" />

    Cuesheet:

FILE "Namco Demo CD (USA) (Track 1).bin" BINARY
  TRACK 01 MODE2/2352
    INDEX 01 00:00:00
FILE "Namco Demo CD (USA) (Track 2).bin" BINARY
  TRACK 02 AUDIO
    INDEX 00 00:00:00
    INDEX 01 00:02:00
FILE "Namco Demo CD (USA) (Track 3).bin" BINARY
  TRACK 03 AUDIO
    INDEX 00 00:00:00
    INDEX 01 00:02:00

    Write Offset: 2