https://www.dropbox.com/s/2l21nt25bp203 … 3x.7z?dl=0
Matches: http://redump.org/disc/12315/

Common Disc Info:
    Title: Interactive CD Sampler Disk Volume 5
    System: Sony PlayStation
    Media Type: CD-ROM
    Category: Demos
    Region: USA
    Languages: English
    Disc Serial: PBPX-95003

    Ringcode Information:
        Mastering Code (laser branded/etched): PSRM-009080    1
        Mastering SID Code: IFPI L330
        Data-Side Mould SID Code: IFPI 506C
        Toolstamp or Mastering Code (engraved/stamped): A10
        
        Mastering Code (laser branded/etched): PSRM-009080    2
        Mastering SID Code: IFPI L330
        Data-Side Mould SID Code: IFPI 506D
        Toolstamp or Mastering Code (engraved/stamped): A10
        
    EXE/Build Date: 1997-10-01
    Error Count: 2

Version and Editions:
    Edition/Release: Original

EDC:
    EDC: Yes

Extras:
    Primary Volume Descriptor (PVD):

0320 : 20 20 20 20 20 20 20 20  20 20 20 20 20 31 39 39                199
0330 : 37 31 30 30 33 31 35 35  37 33 35 30 30 00 30 30   7100315573500.00
0340 : 30 30 30 30 30 30 30 30  30 30 30 30 30 30 00 30   00000000000000.0
0350 : 30 30 30 30 30 30 30 30  30 30 30 30 30 30 30 00   000000000000000.
0360 : 30 30 30 30 30 30 30 30  30 30 30 30 30 30 30 30   0000000000000000
0370 : 00 01 00 00 00 00 00 00  00 00 00 00 00 00 00 00   ................

Copy Protection:
    Anti-modchip: No
    LibCrypt: No

Tracks and Write Offsets:
    DAT:

<rom name="Interactive CD Sampler Disk Volume 5 (USA) (Track 1).bin" size="426469344" crc="3e00cdef" md5="287f1751732dbfc36d6b3cf7bd766ee3" sha1="85be07db313f4c417f35b991c689d5b0b3397484" />
<rom name="Interactive CD Sampler Disk Volume 5 (USA) (Track 2).bin" size="20638800" crc="70c90f37" md5="e54b50a212ce5f0bffd81b3dab4b4dfa" sha1="0ae38ac597d87c6b50670c1abf4681831c2222de" />
<rom name="Interactive CD Sampler Disk Volume 5 (USA) (Track 3).bin" size="31897824" crc="83ba448b" md5="abd8f670c1b9a0d7efe03cf3639135ac" sha1="85c9b4ab85a844c7803ebc0f1aae9b68dc7ad547" />
<rom name="Interactive CD Sampler Disk Volume 5 (USA) (Track 4).bin" size="7585200" crc="70b5ea80" md5="0f484825f8ebac056dadac9acf483048" sha1="87cd61c26d8c4b72918c576411084c37697760fa" />
<rom name="Interactive CD Sampler Disk Volume 5 (USA) (Track 5).bin" size="11649456" crc="71a35c7b" md5="6376b7df349d00dd9464be2c9c55a304" sha1="335e772113b532d29e4961825c3af6b5fcbfcf63" />
<rom name="Interactive CD Sampler Disk Volume 5 (USA) (Track 6).bin" size="10750992" crc="f721fde1" md5="0c753c43ce81efd8e772daf923fa8c39" sha1="fca09012c6238f766e52b133ecc0f38a79ba417d" />

    Cuesheet:

FILE "Interactive CD Sampler Disk Volume 5 (USA) (Track 1).bin" BINARY
  TRACK 01 MODE2/2352
    INDEX 01 00:00:00
FILE "Interactive CD Sampler Disk Volume 5 (USA) (Track 2).bin" BINARY
  TRACK 02 AUDIO
    INDEX 00 00:00:00
    INDEX 01 00:02:00
FILE "Interactive CD Sampler Disk Volume 5 (USA) (Track 3).bin" BINARY
  TRACK 03 AUDIO
    INDEX 00 00:00:00
    INDEX 01 00:02:00
FILE "Interactive CD Sampler Disk Volume 5 (USA) (Track 4).bin" BINARY
  TRACK 04 AUDIO
    INDEX 00 00:00:00
    INDEX 01 00:02:00
FILE "Interactive CD Sampler Disk Volume 5 (USA) (Track 5).bin" BINARY
  TRACK 05 AUDIO
    INDEX 00 00:00:00
    INDEX 01 00:02:00
FILE "Interactive CD Sampler Disk Volume 5 (USA) (Track 6).bin" BINARY
  TRACK 06 AUDIO
    INDEX 00 00:00:00
    INDEX 01 00:02:00

    Write Offset: 2